<?xml version="1.0" standalone="no"?>
<!DOCTYPE svg PUBLIC "-//W3C//DTD SVG 1.1//EN" "http://www.w3.org/Graphics/SVG/1.1/DTD/svg11.dtd" >
<svg xmlns="http://www.w3.org/2000/svg">
<metadata>
<json>
<![CDATA[
{
	"fontFamily": "jquery-ui",
	"license": "CC BY-SA 3.0",
	"licenseURL": "https://creativecommons.org/licenses/by-sa/3.0/",
	"description": "Modified Font for jQuery-UI\nFont generated by IcoMoon.",
	"copyright": "Michael Keck",
	"majorVersion": 1,
	"minorVersion": 61,
	"version": "Version 1.61",
	"fontId": "jquery-ui",
	"psName": "jquery-ui",
	"subFamily": "Regular",
	"fullName": "jquery-ui"
}
]]>
</json>
</metadata>
<defs>
<font id="jquery-ui" horiz-adv-x="1024">
<font-face units-per-em="1024" ascent="1024" descent="0" />
<missing-glyph horiz-adv-x="1024" />
<glyph unicode="&#x20;" horiz-adv-x="512" d="" />
<glyph unicode="&#xe600;" glyph-name="arrow-1-n" data-tags="arrow-1-n" d="M219.429 585.146c0.001 4.849 1.928 9.5 5.357 12.929l274.286 274.286c7.141 7.138 18.716 7.138 25.857 0l274.286-274.286c3.429-3.429 5.356-8.079 5.357-12.929v-128c-0.006-16.286-19.694-24.441-31.214-12.929l-188.214 188.214v-449.575c0-20.261-16.311-36.571-36.571-36.571h-73.143c-20.261 0-36.571 16.311-36.571 36.571v449.575l-188.214-188.214c-11.52-11.512-31.208-3.357-31.214 12.929z" />
<glyph unicode="&#xe601;" glyph-name="arrow-1-ne" data-tags="arrow-1-ne" d="M799.017 385.276c3.428 3.43 5.354 8.081 5.354 12.93v387.899c-0.002 10.097-8.187 18.282-18.284 18.284h-387.899c-4.85 0-9.5-1.925-12.93-5.354l-90.51-90.51c-11.511-11.52-3.356-31.208 12.93-31.214h266.175l-317.897-317.897c-14.326-14.326-14.326-37.393 0-51.72l51.72-51.72c14.326-14.326 37.393-14.326 51.72 0l317.897 317.898v-266.175c0.006-16.286 19.693-24.441 31.214-12.93z" />
<glyph unicode="&#xe602;" glyph-name="arrow-1-e" data-tags="arrow-1-e" d="M585.146 219.429c4.849 0.001 9.5 1.928 12.929 5.357l274.286 274.286c7.138 7.141 7.138 18.716 0 25.857l-274.286 274.286c-3.429 3.429-8.079 5.356-12.929 5.357h-128c-16.286-0.006-24.441-19.694-12.929-31.214l188.214-188.214h-449.575c-20.261 0-36.571-16.311-36.571-36.571v-73.143c0-20.261 16.311-36.571 36.571-36.571h449.575l-188.214-188.214c-11.512-11.52-3.357-31.208 12.929-31.214z" />
<glyph unicode="&#xe603;" glyph-name="arrow-1-se" data-tags="arrow-1-se" d="M799.017 638.541c3.428-3.43 5.354-8.081 5.354-12.93v-387.899c-0.002-10.097-8.187-18.282-18.284-18.284h-387.899c-4.85 0-9.5 1.925-12.93 5.354l-90.51 90.51c-11.511 11.52-3.356 31.208 12.93 31.214h266.175l-317.897 317.897c-14.326 14.326-14.326 37.393 0 51.72l51.72 51.72c14.326 14.326 37.393 14.326 51.72 0l317.897-317.898v266.175c0.006 16.286 19.693 24.441 31.214 12.93z" />
<glyph unicode="&#xe604;" glyph-name="arrow-1-s" data-tags="arrow-1-s" d="M804.571 438.854c-0.001-4.849-1.928-9.5-5.357-12.929l-274.286-274.286c-7.141-7.138-18.716-7.138-25.857 0l-274.286 274.286c-3.429 3.429-5.356 8.079-5.357 12.929v128c0.006 16.286 19.694 24.441 31.214 12.929l188.214-188.214v449.575c0 20.261 16.311 36.571 36.571 36.571h73.143c20.261 0 36.571-16.311 36.571-36.571v-449.575l188.214 188.214c11.52 11.512 31.208 3.357 31.214-12.929z" />
<glyph unicode="&#xe605;" glyph-name="arrow-1-sw" data-tags="arrow-1-sw" d="M224.782 638.541c-3.428-3.43-5.354-8.081-5.354-12.93v-387.899c0.002-10.097 8.187-18.282 18.284-18.284h387.899c4.85 0 9.5 1.925 12.93 5.354l90.51 90.51c11.511 11.52 3.356 31.208-12.93 31.214h-266.175l317.897 317.897c14.326 14.326 14.326 37.393 0 51.72l-51.72 51.72c-14.326 14.326-37.393 14.326-51.72 0l-317.897-317.898v266.175c-0.006 16.286-19.693 24.441-31.214 12.93z" />
<glyph unicode="&#xe606;" glyph-name="arrow-1-w" data-tags="arrow-1-w" d="M438.854 219.429c-4.849 0.001-9.5 1.928-12.929 5.357l-274.286 274.286c-7.138 7.141-7.138 18.716 0 25.857l274.286 274.286c3.429 3.429 8.079 5.356 12.929 5.357h128c16.286-0.006 24.441-19.694 12.929-31.214l-188.214-188.214h449.575c20.261 0 36.571-16.311 36.571-36.571v-73.143c0-20.261-16.311-36.571-36.571-36.571h-449.575l188.214-188.214c11.512-11.52 3.357-31.208-12.929-31.214z" />
<glyph unicode="&#xe607;" glyph-name="arrow-1-nw" data-tags="arrow-1-nw" d="M224.782 385.276c-3.428 3.43-5.354 8.081-5.354 12.93v387.899c0.002 10.097 8.187 18.282 18.284 18.284h387.899c4.85 0 9.5-1.925 12.93-5.354l90.51-90.51c11.511-11.52 3.356-31.208-12.93-31.214h-266.175l317.897-317.897c14.326-14.326 14.326-37.393 0-51.72l-51.72-51.72c-14.326-14.326-37.393-14.326-51.72 0l-317.897 317.898v-266.175c-0.006-16.286-19.693-24.441-31.214-12.93z" />
<glyph unicode="&#xe608;" glyph-name="arrowstop-1-n" data-tags="arrowstop-1-n" d="M146.286 841.143c0-20.261 16.311-36.571 36.571-36.571h658.286c20.261 0 36.571 16.311 36.571 36.571v73.143c0 20.261-16.311 36.571-36.571 36.571h-658.286c-20.261 0-36.571-16.311-36.571-36.571v-73.143zM512 804.571c-4.679 0-9.358-1.788-12.929-5.357l-274.286-274.286c-3.429-3.429-5.356-8.079-5.357-12.929v-128c0.006-16.286 19.694-24.44 31.214-12.929l188.214 188.214v-449.571c0-20.261 16.311-36.571 36.571-36.571h73.143c20.261 0 36.571 16.311 36.571 36.571v449.571l188.214-188.214c11.52-11.512 31.208-3.357 31.214 12.929v128c-0.001 4.849-1.928 9.5-5.357 12.929l-274.286 274.286c-3.571 3.569-8.25 5.357-12.929 5.357z" />
<glyph unicode="&#xe609;" glyph-name="arrowstop-1-e" data-tags="arrowstop-1-e" d="M841.143 877.714c-20.261 0-36.571-16.311-36.571-36.571v-658.286c0-20.261 16.311-36.571 36.571-36.571h73.143c20.261 0 36.571 16.311 36.571 36.571v658.286c0 20.261-16.311 36.571-36.571 36.571h-73.143zM804.571 512c0 4.679-1.788 9.358-5.357 12.929l-274.286 274.286c-3.429 3.429-8.079 5.356-12.929 5.357h-128c-16.286-0.006-24.44-19.694-12.929-31.214l188.214-188.214h-449.571c-20.261 0-36.571-16.311-36.571-36.571v-73.143c0-20.261 16.311-36.571 36.571-36.571h449.571l-188.214-188.214c-11.512-11.52-3.357-31.208 12.929-31.214h128c4.849 0.001 9.5 1.928 12.929 5.357l274.286 274.286c3.569 3.571 5.357 8.25 5.357 12.929z" />
<glyph unicode="&#xe60a;" glyph-name="arrowstop-1-s" data-tags="arrowstop-1-s" d="M877.714 182.857c0 20.261-16.311 36.571-36.571 36.571h-658.286c-20.261 0-36.571-16.311-36.571-36.571v-73.143c0-20.261 16.311-36.571 36.571-36.571h658.286c20.261 0 36.571 16.311 36.571 36.571v73.143zM512 219.429c4.679 0 9.358 1.788 12.929 5.357l274.286 274.286c3.429 3.429 5.356 8.079 5.357 12.929v128c-0.006 16.286-19.694 24.44-31.214 12.929l-188.214-188.214v449.571c0 20.261-16.311 36.571-36.571 36.571h-73.143c-20.261 0-36.571-16.311-36.571-36.571v-449.571l-188.214 188.214c-11.52 11.512-31.208 3.357-31.214-12.929v-128c0.001-4.849 1.928-9.5 5.357-12.929l274.286-274.286c3.571-3.569 8.25-5.357 12.929-5.357z" />
<glyph unicode="&#xe60b;" glyph-name="arrowstop-1-w" data-tags="arrowstop-1-w" d="M182.857 146.286c20.261 0 36.571 16.311 36.571 36.571v658.286c0 20.261-16.311 36.571-36.571 36.571h-73.143c-20.261 0-36.571-16.311-36.571-36.571v-658.286c0-20.261 16.311-36.571 36.571-36.571h73.143zM219.429 512c0-4.679 1.788-9.358 5.357-12.929l274.286-274.286c3.429-3.429 8.079-5.356 12.929-5.357h128c16.286 0.006 24.44 19.694 12.929 31.214l-188.214 188.214h449.571c20.261 0 36.571 16.311 36.571 36.571v73.143c0 20.261-16.311 36.571-36.571 36.571h-449.571l188.214 188.214c11.512 11.52 3.357 31.208-12.929 31.214h-128c-4.849-0.001-9.5-1.928-12.929-5.357l-274.286-274.286c-3.569-3.571-5.357-8.25-5.357-12.929z" />
<glyph unicode="&#xe60c;" glyph-name="arrowreturn-1-n" data-tags="arrowreturn-1-n" d="M804.571 457.145c-0.006-16.286-19.694-24.44-31.214-12.929l-188.214 188.214v-193.571c0-160.716-131.855-292.571-292.571-292.571-36.571 0-73.143 0-73.143 36.571v73.143c0 36.571 36.571 36.571 73.143 36.571 81.658 0 146.286 64.628 146.286 146.286v193.571l-188.214-188.214c-11.52-11.512-31.208-3.357-31.214 12.929v128c0.001 4.849 1.928 9.5 5.357 12.929l274.286 274.286c7.141 7.138 18.716 7.138 25.857 0l274.286-274.286c3.429-3.429 5.356-8.079 5.357-12.929z" />
<glyph unicode="&#xe60d;" glyph-name="arrowreturn-1-e" data-tags="arrowreturn-1-e" d="M457.145 804.571c-16.286-0.006-24.44-19.694-12.929-31.214l188.214-188.214h-193.571c-160.716 0-292.571-131.855-292.571-292.571 0-36.571 0-73.143 36.571-73.143h73.143c36.571 0 36.571 36.571 36.571 73.143 0 81.658 64.628 146.286 146.286 146.286h193.571l-188.214-188.214c-11.512-11.52-3.357-31.208 12.929-31.214h128c4.849 0.001 9.5 1.928 12.929 5.357l274.286 274.286c7.138 7.141 7.138 18.716 0 25.857l-274.286 274.286c-3.429 3.429-8.079 5.356-12.929 5.357z" />
<glyph unicode="&#xe60e;" glyph-name="arrowreturn-1-s" data-tags="arrowreturn-1-s" d="M219.429 566.855c0.006 16.286 19.694 24.44 31.214 12.929l188.214-188.214v193.571c0 160.716 131.855 292.571 292.571 292.571 36.571 0 73.143 0 73.143-36.571v-73.143c0-36.571-36.571-36.571-73.143-36.571-81.658 0-146.286-64.628-146.286-146.286v-193.571l188.214 188.214c11.52 11.512 31.208 3.357 31.214-12.929v-128c-0.001-4.849-1.928-9.5-5.357-12.929l-274.286-274.286c-7.141-7.138-18.716-7.138-25.857 0l-274.286 274.286c-3.429 3.429-5.356 8.079-5.357 12.929z" />
<glyph unicode="&#xe60f;" glyph-name="arrowreturn-1-w" data-tags="arrowreturn-1-w" d="M566.855 804.571c16.286-0.006 24.44-19.694 12.929-31.214l-188.214-188.214h193.571c160.716 0 292.571-131.855 292.571-292.571 0-36.571 0-73.143-36.571-73.143h-73.143c-36.571 0-36.571 36.571-36.571 73.143 0 81.658-64.628 146.286-146.286 146.286h-193.571l188.214-188.214c11.512-11.52 3.357-31.208-12.929-31.214h-128c-4.849 0.001-9.5 1.928-12.929 5.357l-274.286 274.286c-7.138 7.141-7.138 18.716 0 25.857l274.286 274.286c3.429 3.429 8.079 5.356 12.929 5.357z" />
<glyph unicode="&#xe610;" glyph-name="arrowrefresh-1-n" data-tags="arrowrefresh-1-n" d="M475.429 950.857c20.261 0 36.571-16.311 36.571-36.571v-73.143c0-20.261-16.311-36.571-36.571-36.571h-36.571c-161.583 0-292.571-130.989-292.571-292.571s130.989-292.571 292.571-292.571c161.583 0 292.571 130.989 292.571 292.571v47.286l-115.071-115.071c-3.309-3.307-7.879-5.352-12.927-5.352-10.097 0-18.283 8.184-18.288 18.28v128c0.001 5.050 2.049 9.621 5.358 12.93l201.142 201.142c3.31 3.311 7.883 5.359 12.934 5.359 0.098 0 0.197-0.001 0.295-0.002 4.981-0.082 9.478-2.155 12.728-5.458l201.043-201.042c3.309-3.309 5.357-7.881 5.357-12.93v-127.998c-0.004-10.097-8.19-18.28-18.288-18.28-5.048 0-9.618 2.045-12.927 5.352l-115.071 115.071v-47.286c0-242.374-196.483-438.857-438.857-438.857s-438.857 196.483-438.857 438.857c0 242.374 196.483 438.857 438.857 438.857h36.571z" />
<glyph unicode="&#xe611;" glyph-name="arrowrefresh-1-e" data-tags="arrowrefresh-1-e" d="M950.857 475.429c0 20.261-16.311 36.571-36.571 36.571h-73.143c-20.261 0-36.571-16.311-36.571-36.571v-36.571c0-161.583-130.989-292.571-292.571-292.571s-292.571 130.989-292.571 292.571c0 161.583 130.989 292.571 292.571 292.571h47.286l-115.071-115.071c-3.307-3.309-5.352-7.879-5.352-12.927 0-10.097 8.184-18.283 18.28-18.288h128c5.050 0.001 9.621 2.049 12.93 5.358l201.142 201.142c3.311 3.31 5.359 7.883 5.359 12.934 0 0.098-0.001 0.197-0.002 0.295-0.082 4.981-2.155 9.478-5.458 12.728l-201.042 201.043c-3.309 3.309-7.881 5.357-12.93 5.357h-127.998c-10.097-0.004-18.28-8.19-18.28-18.288 0-5.048 2.045-9.618 5.352-12.927l115.071-115.071h-47.286c-242.374 0-438.857-196.483-438.857-438.857s196.483-438.857 438.857-438.857c242.374 0 438.857 196.483 438.857 438.857v36.571z" />
<glyph unicode="&#xe612;" glyph-name="arrowrefresh-1-s" data-tags="arrowrefresh-1-s" d="M548.571 73.143c-20.261 0-36.571 16.311-36.571 36.571v73.143c0 20.261 16.311 36.571 36.571 36.571h36.571c161.583 0 292.571 130.989 292.571 292.571s-130.989 292.571-292.571 292.571c-161.583 0-292.571-130.989-292.571-292.571v-47.286l115.071 115.071c3.309 3.307 7.879 5.352 12.927 5.352 10.097 0 18.283-8.184 18.288-18.28v-128c-0.001-5.050-2.049-9.621-5.358-12.93l-201.142-201.142c-3.31-3.311-7.883-5.359-12.934-5.359-0.098 0-0.197 0.001-0.295 0.002-4.981 0.082-9.478 2.155-12.728 5.458l-201.043 201.042c-3.309 3.309-5.357 7.881-5.357 12.93v127.998c0.004 10.097 8.19 18.28 18.288 18.28 5.048 0 9.618-2.045 12.927-5.352l115.071-115.071v47.286c0 242.374 196.483 438.857 438.857 438.857s438.857-196.483 438.857-438.857c0-242.374-196.483-438.857-438.857-438.857h-36.571z" />
<glyph unicode="&#xe613;" glyph-name="arrowrefresh-1-w" data-tags="arrowrefresh-1-w" d="M73.143 475.429c0 20.261 16.311 36.571 36.571 36.571h73.143c20.261 0 36.571-16.311 36.571-36.571v-36.571c0-161.583 130.989-292.571 292.571-292.571s292.571 130.989 292.571 292.571c0 161.583-130.989 292.571-292.571 292.571h-47.286l115.071-115.071c3.307-3.309 5.352-7.879 5.352-12.927 0-10.097-8.184-18.283-18.28-18.288h-128c-5.050 0.001-9.621 2.049-12.93 5.358l-201.142 201.142c-3.311 3.31-5.359 7.883-5.359 12.934 0 0.098 0.001 0.197 0.002 0.295 0.082 4.981 2.155 9.478 5.458 12.728l201.042 201.043c3.309 3.309 7.881 5.357 12.93 5.357h127.998c10.097-0.004 18.28-8.19 18.28-18.288 0-5.048-2.045-9.618-5.352-12.927l-115.071-115.071h47.286c242.374 0 438.857-196.483 438.857-438.857s-196.483-438.857-438.857-438.857c-242.374 0-438.857 196.483-438.857 438.857v36.571z" />
<glyph unicode="&#xe614;" glyph-name="arrow-2-n-s" data-tags="arrow-2-n-s" d="M804.571 731.429c-0.001 4.849-1.928 9.5-5.357 12.929l-274.286 274.286c-7.141 7.138-18.716 7.138-25.857 0l-274.286-274.286c-3.429-3.429-5.356-8.079-5.357-12.929v-128c0.006-16.286 19.694-24.441 31.214-12.929l188.214 188.214v-533.429l-188.214 188.214c-11.52 11.512-31.208 3.357-31.214-12.929v-128c0.001-4.849 1.928-9.5 5.357-12.929l274.286-274.286c7.141-7.138 18.716-7.138 25.857 0l274.286 274.286c3.429 3.429 5.356 8.079 5.357 12.929v128c-0.006 16.286-19.694 24.44-31.214 12.929l-188.214-188.214v533.429l188.214-188.214c11.52-11.512 31.208-3.357 31.214 12.929z" />
<glyph unicode="&#xe615;" glyph-name="arrow-2-ne-sw" data-tags="arrow-2-ne-sw" d="M471.452 877.714c-4.851 0-9.502-1.929-12.932-5.359l-90.598-90.527c-11.515-11.524-3.358-31.218 12.932-31.223h266.292l-373.752-373.752v266.292c-0.006 16.291-19.7 24.447-31.223 12.932l-90.527-90.527c-3.429-3.431-5.359-8.081-5.359-12.932v-388.042c0.002-10.1 8.191-18.289 18.291-18.291h388.042c4.851 0 9.502 1.93 12.932 5.359l90.527 90.527c11.515 11.524 3.358 31.218-12.932 31.223h-266.292l373.752 373.752v-266.292c0.006-16.291 19.7-24.447 31.223-12.932l90.527 90.598c3.429 3.431 5.359 8.081 5.359 12.932v387.971c-0.002 10.1-8.191 18.289-18.291 18.291z" />
<glyph unicode="&#xe616;" glyph-name="arrow-2-e-w" data-tags="arrow-2-e-w" d="M292.571 804.571c-4.849-0.001-9.5-1.928-12.929-5.357l-274.286-274.286c-7.138-7.141-7.138-18.716 0-25.857l274.286-274.286c3.429-3.429 8.079-5.356 12.929-5.357h128c16.286 0.006 24.441 19.694 12.929 31.214l-188.214 188.214h533.429l-188.214-188.214c-11.512-11.52-3.357-31.208 12.929-31.214h128c4.849 0.001 9.5 1.928 12.929 5.357l274.286 274.286c7.138 7.141 7.138 18.716 0 25.857l-274.286 274.286c-3.429 3.429-8.079 5.356-12.929 5.357h-128c-16.286-0.006-24.44-19.694-12.929-31.214l188.214-188.214h-533.429l188.214 188.214c11.512 11.52 3.357 31.208-12.929 31.214z" />
<glyph unicode="&#xe617;" glyph-name="arrow-2-se-nw" data-tags="arrow-2-se-nw" d="M877.714 552.548c0 4.851-1.93 9.502-5.359 12.932l-90.527 90.598c-11.524 11.515-31.218 3.358-31.223-12.932v-266.292l-373.752 373.752h266.292c16.291 0.006 24.447 19.7 12.932 31.223l-90.527 90.527c-3.431 3.429-8.081 5.359-12.932 5.359h-388.042c-10.1-0.002-18.289-8.191-18.291-18.291v-388.042c0-4.851 1.93-9.502 5.359-12.932l90.527-90.527c11.524-11.515 31.218-3.358 31.223 12.932v266.292l373.752-373.752h-266.292c-16.291-0.006-24.447-19.7-12.932-31.223l90.598-90.527c3.431-3.429 8.081-5.359 12.932-5.359h387.971c10.1 0.002 18.289 8.191 18.291 18.291z" />
<glyph unicode="&#xe618;" glyph-name="arrow-4" data-tags="arrow-4" d="M511.714 1024c-4.996-0.082-9.493-2.155-12.743-5.458l-182.757-182.756c-3.307-3.309-5.352-7.879-5.352-12.927 0-10.097 8.184-18.283 18.28-18.288h109.715v-219.429h-219.429v109.714c-0.004 10.097-8.19 18.28-18.288 18.28-5.048 0-9.618-2.045-12.927-5.352l-182.857-182.857c-3.308-3.309-5.354-7.88-5.354-12.929s2.046-9.619 5.354-12.929l182.857-182.857c3.309-3.307 7.879-5.352 12.927-5.352 10.097 0 18.283 8.184 18.288 18.28v109.715h219.429v-219.429h-109.714c-10.097-0.004-18.28-8.19-18.28-18.288 0-5.048 2.045-9.618 5.352-12.927l182.857-182.857c3.309-3.308 7.88-5.354 12.929-5.354s9.619 2.046 12.929 5.354l182.857 182.857c3.307 3.309 5.352 7.879 5.352 12.927 0 10.097-8.184 18.283-18.28 18.288h-109.715v219.429h219.429v-109.714c0.004-10.097 8.19-18.28 18.288-18.28 5.048 0 9.618 2.045 12.927 5.352l182.857 182.857c3.308 3.309 5.354 7.88 5.354 12.929s-2.046 9.619-5.354 12.929l-182.857 182.857c-3.309 3.307-7.879 5.352-12.927 5.352-10.097 0-18.283-8.184-18.288-18.28v-109.715h-219.429v219.429h109.714c10.097 0.004 18.28 8.19 18.28 18.288 0 5.048-2.045 9.618-5.352 12.927l-182.857 182.857c-3.31 3.311-7.883 5.359-12.934 5.359-0.098 0-0.197-0.001-0.295-0.002z" />
<glyph unicode="&#xe619;" glyph-name="arrow-4-diag" data-tags="arrow-4-diag" d="M18.286 1024c-10.099-0.001-18.285-8.187-18.286-18.286v-310.857c0.004-10.097 8.19-18.28 18.288-18.28 5.048 0 9.618 2.045 12.927 5.352l96.786 96.786 266.714-266.714-266.714-266.714-96.786 96.786c-3.309 3.307-7.879 5.352-12.927 5.352-10.097 0-18.283-8.184-18.288-18.28v-310.858c0.001-10.099 8.187-18.285 18.286-18.286h310.857c10.097 0.004 18.28 8.19 18.28 18.288 0 5.048-2.045 9.618-5.352 12.927l-96.786 96.786 266.714 266.714 266.714-266.714-96.786-96.786c-3.307-3.309-5.352-7.879-5.352-12.927 0-10.097 8.184-18.283 18.28-18.288h310.858c10.099 0.001 18.285 8.187 18.286 18.286v310.857c-0.004 10.097-8.19 18.28-18.288 18.28-5.048 0-9.618-2.045-12.927-5.352l-96.786-96.786-266.786 266.786 263.429 266.786 100.357-97.143c3.286-3.181 7.77-5.141 12.712-5.141 10.099 0 18.286 8.186 18.288 18.284v310.857c-0.001 10.099-8.187 18.285-18.286 18.286h-310.857c-10.097-0.004-18.28-8.19-18.28-18.288 0-5.048 2.045-9.618 5.352-12.927l96.786-96.786-266.714-266.714-266.714 266.714 96.786 96.786c3.307 3.309 5.352 7.879 5.352 12.927 0 10.097-8.184 18.283-18.28 18.288h-310.858z" />
<glyph unicode="&#xe61a;" glyph-name="arrowthick-1-n" data-tags="arrowthick-1-n" d="M804.571 530.286c0-10.13-8.155-18.286-18.286-18.286h-128v-329.143c0-20.261-16.311-36.571-36.571-36.571h-219.429c-20.261 0-36.571 16.311-36.571 36.571v329.143h-128c-10.13 0-18.286 8.155-18.286 18.286v19.214h0.216c0.238 4.497 1.942 8.8 5.143 12l274.286 274.286c7.141 7.138 18.716 7.138 25.857 0l274.284-274.286c3.199-3.2 4.904-7.503 5.143-12h0.216v-19.214z" />
<glyph unicode="&#xe61b;" glyph-name="arrowthick-1-ne" data-tags="arrowthick-1-ne" d="M372.403 786.161c-7.163-7.163-7.163-18.697 0-25.86l90.51-90.51-232.739-232.739c-14.326-14.326-14.326-37.393 0-51.72l155.159-155.159c14.326-14.326 37.393-14.326 51.72 0l232.739 232.739 90.51-90.51c7.163-7.163 18.697-7.163 25.86 0l13.586 13.586-0.154 0.154c3.012 3.348 4.849 7.596 4.849 12.122v387.899c-0.002 10.097-8.187 18.282-18.284 18.284l-387.897-0.001c-4.525-0.001-8.773-1.838-12.122-4.849l-0.154 0.154-13.586-13.586z" />
<glyph unicode="&#xe61c;" glyph-name="arrowthick-1-e" data-tags="arrowthick-1-e" d="M530.286 804.571c-10.13 0-18.286-8.155-18.286-18.286v-128h-329.143c-20.261 0-36.571-16.311-36.571-36.571v-219.429c0-20.261 16.311-36.571 36.571-36.571h329.143v-128c0-10.13 8.155-18.286 18.286-18.286h19.214v0.214c4.497 0.238 8.8 1.942 12 5.143l274.286 274.286c7.138 7.141 7.138 18.716 0 25.857l-274.286 274.286c-3.2 3.199-7.503 4.904-12 5.143v0.214h-19.214z" />
<glyph unicode="&#xe61d;" glyph-name="arrowthick-1-se" data-tags="arrowthick-1-se" d="M786.159 651.471c-7.163 7.163-18.697 7.163-25.86 0l-90.51-90.51-232.739 232.739c-14.326 14.326-37.393 14.326-51.72 0l-155.159-155.159c-14.326-14.326-14.326-37.393 0-51.72l232.739-232.739-90.51-90.51c-7.163-7.163-7.163-18.697 0-25.86l13.586-13.586 0.154 0.154c3.348-3.012 7.596-4.849 12.122-4.849h387.899c10.097 0.002 18.282 8.187 18.284 18.284l-0.001 387.897c-0.001 4.525-1.838 8.773-4.849 12.122l0.154 0.154-13.586 13.586z" />
<glyph unicode="&#xe61e;" glyph-name="arrowthick-1-s" data-tags="arrowthick-1-s" d="M804.571 493.711c0 10.13-8.155 18.286-18.286 18.286h-128v329.143c0 20.261-16.311 36.571-36.571 36.571h-219.429c-20.261 0-36.571-16.311-36.571-36.571v-329.143h-128c-10.13 0-18.286-8.155-18.286-18.286v-19.214h0.216c0.238-4.497 1.942-8.8 5.143-12l274.286-274.286c7.141-7.138 18.716-7.138 25.857 0l274.284 274.286c3.199 3.2 4.904 7.503 5.143 12h0.216v19.214z" />
<glyph unicode="&#xe61f;" glyph-name="arrowthick-1-sw" data-tags="arrowthick-1-sw" d="M651.47 237.714c7.163 7.163 7.163 18.697 0 25.86l-90.51 90.51 232.739 232.739c14.326 14.326 14.326 37.393 0 51.72l-155.159 155.159c-14.326 14.326-37.393 14.326-51.72 0l-232.739-232.739-90.51 90.51c-7.163 7.163-18.697 7.163-25.86 0l-13.587-13.586 0.153-0.154c-3.012-3.348-4.849-7.596-4.849-12.122v-387.899c0.002-10.097 8.187-18.282 18.284-18.284l387.897 0.001c4.525 0.001 8.773 1.838 12.122 4.849l0.154-0.154 13.586 13.586z" />
<glyph unicode="&#xe620;" glyph-name="arrowthick-1-w" data-tags="arrowthick-1-w" d="M493.711 804.571c10.13 0 18.286-8.155 18.286-18.286v-128h329.143c20.261 0 36.571-16.311 36.571-36.571v-219.429c0-20.261-16.311-36.571-36.571-36.571h-329.143v-128c0-10.13-8.155-18.286-18.286-18.286h-19.214v0.216c-4.497 0.238-8.8 1.942-12 5.143l-274.286 274.286c-7.138 7.141-7.138 18.716 0 25.857l274.286 274.284c3.2 3.199 7.503 4.904 12 5.143v0.214h19.214z" />
<glyph unicode="&#xe621;" glyph-name="arrowthick-1-nw" data-tags="arrowthick-1-nw" d="M651.47 786.161c7.163-7.163 7.163-18.697 0-25.86l-90.51-90.51 232.739-232.739c14.326-14.326 14.326-37.393 0-51.72l-155.159-155.159c-14.326-14.326-37.393-14.326-51.72 0l-232.739 232.739-90.51-90.51c-7.163-7.163-18.697-7.163-25.86 0l-13.587 13.586 0.153 0.154c-3.012 3.348-4.849 7.596-4.849 12.122v387.899c0.002 10.097 8.187 18.282 18.284 18.284l387.897-0.001c4.525-0.001 8.773-1.838 12.122-4.849l0.154 0.154 13.586-13.586z" />
<glyph unicode="&#xe622;" glyph-name="arrowthickstop-1-n" data-tags="arrowthickstop-1-n" d="M877.714 841.143c0-20.261-16.311-36.571-36.571-36.571h-658.286c-20.261 0-36.571 16.311-36.571 36.571v73.143c0 20.261 16.311 36.571 36.571 36.571h658.286c20.261 0 36.571-16.311 36.571-36.571v-73.143zM804.571 457.143c0-10.13-8.155-18.286-18.286-18.286h-128v-329.143c0-20.261-16.311-36.571-36.571-36.571h-219.429c-20.261 0-36.571 16.311-36.571 36.571v329.143h-128c-10.13 0-18.286 8.155-18.286 18.286v19.214h0.216c0.238 4.497 1.942 8.8 5.143 12l274.286 274.286c7.141 7.138 18.716 7.138 25.857 0l274.286-274.286c3.197-3.2 4.904-7.503 5.143-12h0.213v-19.214z" />
<glyph unicode="&#xe623;" glyph-name="arrowthickstop-1-e" data-tags="arrowthickstop-1-e" d="M841.143 877.714c-20.261 0-36.571-16.311-36.571-36.571v-658.286c0-20.261 16.311-36.571 36.571-36.571h73.143c20.261 0 36.571 16.311 36.571 36.571v658.286c0 20.261-16.311 36.571-36.571 36.571h-73.143zM457.143 804.571c-10.13 0-18.286-8.155-18.286-18.286v-128h-329.143c-20.261 0-36.571-16.311-36.571-36.571v-219.429c0-20.261 16.311-36.571 36.571-36.571h329.143v-128c0-10.13 8.155-18.286 18.286-18.286h19.214v0.214c4.497 0.238 8.8 1.942 12 5.143l274.286 274.286c7.138 7.141 7.138 18.716 0 25.857l-274.286 274.286c-3.2 3.198-7.503 4.904-12 5.143v0.214h-19.214z" />
<glyph unicode="&#xe624;" glyph-name="arrowthickstop-1-s" data-tags="arrowthickstop-1-s" d="M877.714 182.857c0 20.261-16.311 36.571-36.571 36.571h-658.286c-20.261 0-36.571-16.311-36.571-36.571v-73.143c0-20.261 16.311-36.571 36.571-36.571h658.286c20.261 0 36.571 16.311 36.571 36.571v73.143zM804.571 566.857c0 10.13-8.155 18.286-18.286 18.286h-128v329.143c0 20.261-16.311 36.571-36.571 36.571h-219.429c-20.261 0-36.571-16.311-36.571-36.571v-329.143h-128c-10.13 0-18.286-8.155-18.286-18.286v-19.214h0.216c0.238-4.497 1.942-8.8 5.143-12l274.286-274.286c7.141-7.138 18.716-7.138 25.857 0l274.286 274.286c3.197 3.2 4.904 7.503 5.143 12h0.213v19.214z" />
<glyph unicode="&#xe625;" glyph-name="arrowthickstop-1-w" data-tags="arrowthickstop-1-w" d="M182.857 877.714c20.261 0 36.571-16.311 36.571-36.571v-658.286c0-20.261-16.311-36.571-36.571-36.571h-73.143c-20.261 0-36.571 16.311-36.571 36.571v658.286c0 20.261 16.311 36.571 36.571 36.571h73.143zM566.857 804.571c10.13 0 18.286-8.155 18.286-18.286v-128h329.143c20.261 0 36.571-16.311 36.571-36.571v-219.429c0-20.261-16.311-36.571-36.571-36.571h-329.143v-128c0-10.13-8.155-18.286-18.286-18.286h-19.214v0.216c-4.497 0.238-8.8 1.942-12 5.143l-274.286 274.286c-7.138 7.141-7.138 18.716 0 25.857l274.286 274.286c3.2 3.198 7.503 4.904 12 5.143v0.213h19.214z" />
<glyph unicode="&#xe626;" glyph-name="arrowreturnthick-1-n" data-tags="arrowreturnthick-1-n" d="M950.857 603.429c0-10.13-8.155-18.286-18.286-18.286h-128v-36.571c0-262.572-212.857-475.429-475.429-475.429 0 0 0 0 0 0h-219.429c-20.261 0-36.571 16.311-36.571 36.571v219.429c0 20.261 16.311 36.571 36.571 36.571h219.429c0 0 0 0 0 0 100.989 0 182.857 81.868 182.857 182.857 0 0 0 0 0 0v36.571h-128c-10.13 0-18.286 8.155-18.286 18.286v19.214h0.216c0.238 4.497 1.942 8.8 5.143 12l274.286 274.286c7.141 7.138 18.716 7.138 25.857 0l274.286-274.286c3.197-3.2 4.904-7.503 5.143-12h0.216v-19.214z" />
<glyph unicode="&#xe627;" glyph-name="arrowreturnthick-1-e" data-tags="arrowreturnthick-1-e" d="M603.429 950.857c-10.13 0-18.286-8.155-18.286-18.286v-128h-36.571c-262.572 0-475.429-212.857-475.429-475.429v-219.429c0-20.261 16.311-36.571 36.571-36.571h219.429c20.261 0 36.571 16.311 36.571 36.571v219.429c0 100.989 81.868 182.857 182.857 182.857h36.571v-128c0-10.13 8.155-18.286 18.286-18.286h19.214v0.214c4.497 0.238 8.8 1.942 12 5.143l274.286 274.286c7.138 7.141 7.138 18.716 0 25.857l-274.286 274.286c-3.2 3.198-7.503 4.904-12 5.143v0.214h-19.214z" />
<glyph unicode="&#xe628;" glyph-name="arrowreturnthick-1-s" data-tags="arrowreturnthick-1-s" d="M73.146 420.568c0 10.13 8.155 18.286 18.286 18.286h128v36.571c0 0 0 0 0 0 0 262.572 212.857 475.429 475.429 475.429 0 0 0 0 0 0h219.429c20.261 0 36.571-16.311 36.571-36.571v-219.429c0-20.261-16.311-36.571-36.571-36.571h-219.429c-100.989 0-182.857-81.868-182.857-182.857v-36.571h128c10.13 0 18.286-8.155 18.286-18.286v-19.214h-0.216c-0.238-4.497-1.942-8.8-5.143-12l-274.286-274.286c-7.141-7.138-18.716-7.138-25.857 0l-274.286 274.286c-3.197 3.2-4.904 7.503-5.143 12h-0.216v19.214z" />
<glyph unicode="&#xe629;" glyph-name="arrowreturnthick-1-w" data-tags="arrowreturnthick-1-w" d="M420.568 950.857c10.13 0 18.286-8.155 18.286-18.286v-128h36.571c262.572 0 475.429-212.857 475.429-475.429v-219.429c0-20.261-16.311-36.571-36.571-36.571h-219.429c-20.261 0-36.571 16.311-36.571 36.571v219.429c0 100.989-81.868 182.857-182.857 182.857h-36.571v-128c0-10.13-8.155-18.286-18.286-18.286h-19.214v0.216c-4.497 0.238-8.8 1.942-12 5.143l-274.286 274.286c-7.138 7.141-7.138 18.716 0 25.857l274.286 274.286c3.2 3.198 7.503 4.904 12 5.143v0.214h19.214z" />
<glyph unicode="&#xe62a;" glyph-name="arrowthick-2-n-s" data-tags="arrowthick-2-n-s" d="M512 987.429c-4.679 0-9.358-1.788-12.929-5.357l-274.286-274.286c-3.201-3.2-4.905-7.503-5.143-12h-0.214v-19.214c0-10.13 8.155-18.286 18.286-18.286h128v-292.571h-128c-10.13 0-18.286-8.155-18.286-18.286v-19.214h0.214c0.238-4.497 1.942-8.8 5.143-12l274.286-274.286c7.141-7.138 18.716-7.138 25.857 0l274.286 274.286c3.197 3.2 4.904 7.503 5.143 12h0.216l-0.002 0.929v18.286c0 10.13-8.155 18.286-18.286 18.286h-128v292.571h128c10.13 0 18.286 8.155 18.286 18.286v19.214h-0.216c-0.238 4.497-1.945 8.8-5.143 12l-274.286 274.286c-3.569 3.569-8.248 5.357-12.927 5.357z" />
<glyph unicode="&#xe62b;" glyph-name="arrowthick-2-ne-sw" data-tags="arrowthick-2-ne-sw" d="M544.571 950.714c-4.526 0-8.795-1.846-12.143-4.857l-0.143 0.214-0.643-0.714-12.929-12.929c-7.163-7.163-7.163-18.694 0-25.857l90.5-90.5-401.429-401.429-90.5 90.571c-7.163 7.163-18.694 7.163-25.857 0l-12.929-12.929-0.643-0.714 0.143-0.143c-3.012-3.348-4.858-7.546-4.857-12.072v-387.929c0.002-10.096 8.189-18.284 18.286-18.286h387.929c4.524 0.002 8.723 1.846 12.071 4.857l0.143-0.143 0.714 0.643 12.929 12.928c7.163 7.163 7.163 18.694 0 25.857l-90.571 90.5 401.429 401.429 90.5-90.5c7.163-7.163 18.694-7.163 25.857 0l13.571 13.571-0.143 0.143c3.011 3.349 4.855 7.619 4.857 12.143v387.857c-0.002 10.097-8.189 18.284-18.286 18.286z" />
<glyph unicode="&#xe62c;" glyph-name="arrowthick-2-e-w" data-tags="arrowthick-2-e-w" d="M328.214 804.571v-0.214c-4.497-0.239-8.8-1.945-12-5.143l-274.286-274.286c-7.138-7.141-7.138-18.716 0-25.857l274.286-274.286c3.2-3.2 7.503-4.905 12-5.143v-0.216l0.929 0.002h18.286c10.13 0 18.286 8.155 18.286 18.286v128h292.571v-128c0-10.13 8.155-18.286 18.286-18.286h19.214v0.216c4.497 0.238 8.8 1.942 12 5.143l274.286 274.286c7.138 7.141 7.138 18.716 0 25.857l-274.286 274.286c-3.2 3.196-7.503 4.903-12 5.141v0.214h-19.214c-10.13 0-18.286-8.155-18.286-18.286v-128h-292.571v128c0 10.13-8.155 18.286-18.286 18.286h-18.286z" />
<glyph unicode="&#xe62d;" glyph-name="arrowthick-2-se-nw" data-tags="arrowthick-2-se-nw" d="M91.429 950.714c-10.097-0.002-18.284-8.19-18.286-18.286v-387.857c0-4.526 1.845-8.795 4.857-12.143l-0.143-0.143 13.572-13.572c7.163-7.163 18.694-7.163 25.857 0l90.5 90.5 401.429-401.429-90.5-90.5c-7.163-7.163-7.163-18.694 0-25.857l13.571-13.572 0.143 0.143c3.348-3.012 7.617-4.857 12.143-4.857h387.857c10.097 0.002 18.284 8.189 18.286 18.286v387.929c-0.002 4.524-1.846 8.723-4.857 12.071l0.143 0.143-0.643 0.714-12.929 12.929c-7.163 7.163-18.694 7.163-25.857 0l-90.5-90.571-401.429 401.429 90.571 90.5c7.163 7.163 7.163 18.694 0 25.857l-12.929 12.929-0.714 0.643-0.143-0.143c-3.349 3.011-7.548 4.856-12.072 4.857z" />
<glyph unicode="&#xe62e;" glyph-name="circle-arrow-n" data-tags="circle-arrow-n" d="M0 512c0-282.77 229.23-512 512-512s512 229.23 512 512c0 282.77-229.23 512-512 512s-512-229.23-512-512zM219.429 384v128c0.001 4.849 1.928 9.5 5.357 12.929l274.286 274.286c7.141 7.138 18.716 7.138 25.857 0l274.286-274.286c3.429-3.429 5.356-8.079 5.357-12.929v-128c-0.006-16.286-19.694-24.44-31.214-12.929l-188.214 188.214v-303.286c0-20.261-16.311-36.571-36.571-36.571h-73.143c-20.261 0-36.571 16.311-36.571 36.571v303.286l-188.214-188.214c-11.52-11.512-31.208-3.357-31.214 12.929z" />
<glyph unicode="&#xe62f;" glyph-name="circle-arrow-e" data-tags="circle-arrow-e" d="M512 1024c-282.77 0-512-229.23-512-512s229.23-512 512-512c282.77 0 512 229.23 512 512s-229.23 512-512 512zM384 804.571h128c4.849-0.001 9.5-1.928 12.929-5.357l274.286-274.286c7.138-7.141 7.138-18.716 0-25.857l-274.286-274.286c-3.429-3.429-8.079-5.356-12.929-5.357h-128c-16.286 0.006-24.44 19.694-12.929 31.214l188.214 188.214h-303.286c-20.261 0-36.571 16.311-36.571 36.571v73.143c0 20.261 16.311 36.571 36.571 36.571h303.286l-188.214 188.214c-11.512 11.52-3.357 31.208 12.929 31.214z" />
<glyph unicode="&#xe630;" glyph-name="circle-arrow-s" data-tags="circle-arrow-s" d="M1024 512c0 282.77-229.23 512-512 512s-512-229.23-512-512c0-282.77 229.23-512 512-512s512 229.23 512 512zM804.571 640v-128c-0.001-4.849-1.928-9.5-5.357-12.929l-274.286-274.286c-7.141-7.138-18.716-7.138-25.857 0l-274.286 274.286c-3.429 3.429-5.356 8.079-5.357 12.929v128c0.006 16.286 19.694 24.44 31.214 12.929l188.214-188.214v303.286c0 20.261 16.311 36.571 36.571 36.571h73.143c20.261 0 36.571-16.311 36.571-36.571v-303.286l188.214 188.214c11.52 11.512 31.208 3.357 31.214-12.929z" />
<glyph unicode="&#xe631;" glyph-name="circle-arrow-w" data-tags="circle-arrow-w" d="M512 0c282.77 0 512 229.23 512 512s-229.23 512-512 512c-282.77 0-512-229.23-512-512s229.23-512 512-512zM640 219.429h-128c-4.849 0.001-9.5 1.928-12.929 5.357l-274.286 274.286c-7.138 7.141-7.138 18.716 0 25.857l274.286 274.286c3.429 3.429 8.079 5.356 12.929 5.357h128c16.286-0.006 24.44-19.694 12.929-31.214l-188.214-188.214h303.286c20.261 0 36.571-16.311 36.571-36.571v-73.143c0-20.261-16.311-36.571-36.571-36.571h-303.286l188.214-188.214c11.512-11.52 3.357-31.208-12.929-31.214z" />
<glyph unicode="&#xe632;" glyph-name="circle-b-arrow-n" data-tags="circle-b-arrow-n" d="M0 512c0-282.77 229.23-512 512-512s512 229.23 512 512c0 282.77-229.23 512-512 512s-512-229.23-512-512zM109.714 512c0 222.176 180.109 402.286 402.286 402.286s402.286-180.109 402.286-402.286c0-222.176-180.109-402.286-402.286-402.286s-402.286 180.109-402.286 402.286zM804.571 512.004c-0.001 4.849-1.928 9.5-5.357 12.929l-274.286 274.286c-7.141 7.138-18.716 7.138-25.857 0l-274.286-274.286c-3.429-3.429-5.356-8.079-5.357-12.929v-128c0.006-16.286 19.694-24.441 31.214-12.929l188.214 188.214v-303.289c0-20.261 16.311-36.571 36.571-36.571h73.143c20.261 0 36.571 16.311 36.571 36.571v303.289l188.214-188.214c11.52-11.512 31.208-3.357 31.214 12.929z" />
<glyph unicode="&#xe633;" glyph-name="circle-b-arrow-e" data-tags="circle-b-arrow-e" d="M512 1024c-282.77 0-512-229.23-512-512s229.23-512 512-512c282.77 0 512 229.23 512 512s-229.23 512-512 512zM512 914.286c222.176 0 402.286-180.109 402.286-402.286s-180.109-402.286-402.286-402.286c-222.176 0-402.286 180.109-402.286 402.286s180.109 402.286 402.286 402.286zM512.004 219.429c4.849 0.001 9.5 1.928 12.929 5.357l274.286 274.286c7.138 7.141 7.138 18.716 0 25.857l-274.286 274.286c-3.429 3.429-8.079 5.356-12.929 5.357h-128c-16.286-0.006-24.441-19.694-12.929-31.214l188.214-188.214h-303.289c-20.261 0-36.571-16.311-36.571-36.571v-73.143c0-20.261 16.311-36.571 36.571-36.571h303.289l-188.214-188.214c-11.512-11.52-3.357-31.208 12.929-31.214z" />
<glyph unicode="&#xe634;" glyph-name="circle-b-arrow-s" data-tags="circle-b-arrow-s" d="M1024 512c0 282.77-229.23 512-512 512s-512-229.23-512-512c0-282.77 229.23-512 512-512s512 229.23 512 512zM914.286 512c0-222.176-180.109-402.286-402.286-402.286s-402.286 180.109-402.286 402.286c0 222.176 180.109 402.286 402.286 402.286s402.286-180.109 402.286-402.286zM219.429 511.996c0.001-4.849 1.928-9.5 5.357-12.929l274.286-274.286c7.141-7.138 18.716-7.138 25.857 0l274.286 274.286c3.429 3.429 5.356 8.079 5.357 12.929v128c-0.006 16.286-19.694 24.44-31.214 12.929l-188.214-188.214v303.289c0 20.261-16.311 36.571-36.571 36.571h-73.143c-20.261 0-36.571-16.311-36.571-36.571v-303.289l-188.214 188.214c-11.52 11.512-31.208 3.357-31.214-12.929z" />
<glyph unicode="&#xe635;" glyph-name="circle-b-arrow-w" data-tags="circle-b-arrow-w" d="M512 0c282.77 0 512 229.23 512 512s-229.23 512-512 512c-282.77 0-512-229.23-512-512s229.23-512 512-512zM512 109.714c-222.176 0-402.286 180.109-402.286 402.286s180.109 402.286 402.286 402.286c222.176 0 402.286-180.109 402.286-402.286s-180.109-402.286-402.286-402.286zM511.996 804.571c-4.849-0.001-9.5-1.928-12.929-5.357l-274.286-274.286c-7.138-7.141-7.138-18.716 0-25.857l274.286-274.286c3.429-3.429 8.079-5.356 12.929-5.357h128c16.286 0.006 24.441 19.694 12.929 31.214l-188.214 188.214h303.289c20.261 0 36.571 16.311 36.571 36.571v73.143c0 20.261-16.311 36.571-36.571 36.571h-303.289l188.214 188.214c11.512 11.52 3.357 31.208-12.929 31.214z" />
<glyph unicode="&#xe636;" glyph-name="carat-1-n" data-tags="carat-1-n" d="M804.572 310.856c-0.004-10.097-8.19-18.28-18.288-18.28-5.048 0-9.618 2.045-12.927 5.352l-261.357 261.357-261.357-261.357c-3.309-3.307-7.879-5.352-12.927-5.352-10.097 0-18.283 8.184-18.288 18.28v128c0.001 5.050 2.049 9.621 5.358 12.93l274.285 274.285c3.309 3.308 7.88 5.354 12.929 5.354s9.619-2.046 12.929-5.354l274.286-274.286c3.309-3.309 5.357-7.881 5.357-12.93v-127.998z" />
<glyph unicode="&#xe637;" glyph-name="carat-1-ne" data-tags="carat-1-ne" d="M710.194 296.436c-3.309-3.306-7.879-5.351-12.926-5.351-10.098 0-18.284 8.184-18.288 18.281v369.615h-369.615c-10.097 0.004-18.281 8.19-18.281 18.288 0 5.047 2.045 9.617 5.351 12.926l90.51 90.51c3.309 3.308 7.88 5.354 12.929 5.354 0 0 0.001 0 0.001 0h387.899c10.097-0.002 18.282-8.187 18.284-18.284v-387.899c0 0 0-0.001 0-0.001 0-5.049-2.046-9.62-5.354-12.929l-90.51-90.51z" />
<glyph unicode="&#xe638;" glyph-name="carat-1-e" data-tags="carat-1-e" d="M310.857 804.571c-10.097-0.004-18.28-8.19-18.28-18.288 0-5.048 2.045-9.618 5.352-12.927l261.357-261.357-261.357-261.357c-3.307-3.309-5.352-7.879-5.352-12.927 0-10.097 8.184-18.283 18.28-18.288h128c5.050 0.001 9.621 2.049 12.93 5.358l274.285 274.285c3.308 3.309 5.354 7.88 5.354 12.929s-2.046 9.619-5.354 12.929l-274.286 274.286c-3.309 3.309-7.881 5.357-12.93 5.357h-127.998z" />
<glyph unicode="&#xe639;" glyph-name="carat-1-se" data-tags="carat-1-se" d="M710.195 727.564c-3.309 3.306-7.879 5.351-12.926 5.351-10.098 0-18.284-8.184-18.288-18.281v-369.615h-369.615c-10.097-0.004-18.281-8.19-18.281-18.288 0-5.047 2.045-9.617 5.351-12.926l90.51-90.51c3.309-3.308 7.88-5.354 12.929-5.354 0 0 0.001 0 0.001 0h387.899c10.097 0.002 18.282 8.187 18.284 18.284v387.899c0 0 0 0.001 0 0.001 0 5.049-2.046 9.62-5.354 12.929l-90.51 90.51z" />
<glyph unicode="&#xe63a;" glyph-name="carat-1-s" data-tags="carat-1-s" d="M804.572 713.144c-0.004 10.097-8.19 18.28-18.288 18.28-5.048 0-9.618-2.045-12.927-5.352l-261.357-261.357-261.357 261.357c-3.309 3.307-7.879 5.352-12.927 5.352-10.097 0-18.283-8.184-18.288-18.28v-128c0.001-5.050 2.049-9.621 5.358-12.93l274.285-274.285c3.309-3.308 7.88-5.354 12.929-5.354s9.619 2.046 12.929 5.354l274.286 274.286c3.309 3.309 5.357 7.881 5.357 12.93v127.998z" />
<glyph unicode="&#xe63b;" glyph-name="carat-1-sw" data-tags="carat-1-sw" d="M313.805 727.564c3.309 3.306 7.879 5.351 12.926 5.351 10.098 0 18.284-8.184 18.288-18.281v-369.615h369.615c10.097-0.004 18.281-8.19 18.281-18.288 0-5.047-2.045-9.617-5.351-12.926l-90.51-90.51c-3.309-3.308-7.88-5.354-12.929-5.354 0 0-0.001 0-0.001 0h-387.899c-10.097 0.002-18.282 8.187-18.284 18.284v387.899c0 0 0 0.001 0 0.001 0 5.049 2.046 9.62 5.354 12.929l90.51 90.51z" />
<glyph unicode="&#xe63c;" glyph-name="carat-1-w" data-tags="carat-1-w" d="M713.145 804.571c10.097-0.004 18.28-8.19 18.28-18.288 0-5.048-2.045-9.618-5.352-12.927l-261.357-261.357 261.357-261.357c3.307-3.309 5.352-7.879 5.352-12.927 0-10.097-8.184-18.283-18.28-18.288h-128c-5.050 0.001-9.621 2.049-12.93 5.358l-274.285 274.285c-3.308 3.309-5.354 7.88-5.354 12.929s2.046 9.619 5.354 12.929l274.286 274.286c3.309 3.309 7.881 5.357 12.93 5.357h127.998z" />
<glyph unicode="&#xe63d;" glyph-name="carat-1-nw" data-tags="carat-1-nw" d="M313.805 296.436c3.309-3.306 7.879-5.351 12.926-5.351 10.098 0 18.284 8.184 18.288 18.281v369.615h369.615c10.097 0.004 18.281 8.19 18.281 18.288 0 5.047-2.045 9.617-5.351 12.926l-90.51 90.51c-3.309 3.308-7.88 5.354-12.929 5.354 0 0-0.001 0-0.001 0h-387.899c-10.097-0.002-18.282-8.187-18.284-18.284v-387.899c0 0 0-0.001 0-0.001 0-5.049 2.046-9.62 5.354-12.929l90.51-90.51z" />
<glyph unicode="&#xe63e;" glyph-name="carat-2-n" data-tags="carat-2-n" d="M804.571 164.571c-0.004-10.097-8.19-18.28-18.288-18.28-5.048 0-9.618 2.045-12.927 5.352l-261.357 261.357-261.357-261.357c-3.309-3.307-7.879-5.352-12.927-5.352-10.097 0-18.283 8.184-18.288 18.28v128c0.001 5.050 2.049 9.621 5.358 12.93l274.285 274.285c3.309 3.308 7.88 5.354 12.929 5.354s9.619-2.046 12.929-5.354l274.286-274.286c3.309-3.309 5.357-7.881 5.357-12.93v-127.998zM804.571 457.142c-0.004-10.097-8.19-18.28-18.288-18.28-5.048 0-9.618 2.045-12.927 5.352l-261.357 261.357-261.357-261.357c-3.309-3.307-7.879-5.352-12.927-5.352-10.097 0-18.283 8.184-18.288 18.28v128c0.001 5.050 2.049 9.621 5.358 12.93l274.285 274.284c3.309 3.308 7.88 5.354 12.929 5.354s9.619-2.046 12.929-5.354l274.286-274.286c3.309-3.309 5.357-7.881 5.357-12.93v-127.998z" />
<glyph unicode="&#xe63f;" glyph-name="carat-2-e" data-tags="carat-2-e" d="M164.566 804.571c-10.097-0.004-18.28-8.19-18.28-18.288 0-5.048 2.045-9.618 5.352-12.927l261.357-261.357-261.357-261.357c-3.307-3.309-5.352-7.879-5.352-12.927 0-10.097 8.184-18.283 18.28-18.288h128c5.050 0.001 9.621 2.049 12.93 5.358l274.285 274.285c3.308 3.309 5.354 7.88 5.354 12.929s-2.046 9.619-5.354 12.929l-274.286 274.286c-3.309 3.309-7.881 5.357-12.93 5.357h-127.998zM457.146 804.571c-10.097-0.004-18.28-8.19-18.28-18.288 0-5.048 2.045-9.618 5.352-12.927l261.357-261.357-261.357-261.357c-3.307-3.309-5.352-7.879-5.352-12.927 0-10.097 8.184-18.283 18.28-18.288h128c5.050 0.001 9.621 2.049 12.93 5.358l274.284 274.285c3.308 3.309 5.354 7.88 5.354 12.929s-2.046 9.619-5.354 12.929l-274.286 274.286c-3.309 3.309-7.881 5.357-12.93 5.357h-127.998z" />
<glyph unicode="&#xe640;" glyph-name="carat-2-s" data-tags="carat-2-s" d="M804.571 859.429c-0.004 10.097-8.19 18.28-18.288 18.28-5.048 0-9.618-2.045-12.927-5.352l-261.357-261.357-261.357 261.357c-3.309 3.307-7.879 5.352-12.927 5.352-10.097 0-18.283-8.184-18.288-18.28v-128c0.001-5.050 2.049-9.621 5.358-12.93l274.285-274.285c3.309-3.308 7.88-5.354 12.929-5.354s9.619 2.046 12.929 5.354l274.286 274.286c3.309 3.309 5.357 7.881 5.357 12.93v127.998zM804.571 566.858c-0.004 10.097-8.19 18.28-18.288 18.28-5.048 0-9.618-2.045-12.927-5.352l-261.357-261.357-261.357 261.357c-3.309 3.307-7.879 5.352-12.927 5.352-10.097 0-18.283-8.184-18.288-18.28v-128c0.001-5.050 2.049-9.621 5.358-12.93l274.285-274.284c3.309-3.308 7.88-5.354 12.929-5.354s9.619 2.046 12.929 5.354l274.286 274.286c3.309 3.309 5.357 7.881 5.357 12.93v127.998z" />
<glyph unicode="&#xe641;" glyph-name="carat-2-w" data-tags="carat-2-w" d="M859.434 804.571c10.097-0.004 18.28-8.19 18.28-18.288 0-5.048-2.045-9.618-5.352-12.927l-261.357-261.357 261.357-261.357c3.307-3.309 5.352-7.879 5.352-12.927 0-10.097-8.184-18.283-18.28-18.288h-128c-5.050 0.001-9.621 2.049-12.93 5.358l-274.284 274.285c-3.308 3.309-5.354 7.88-5.354 12.929s2.046 9.619 5.354 12.929l274.286 274.286c3.309 3.309 7.881 5.357 12.93 5.357h127.998zM566.854 804.571c10.097-0.004 18.28-8.19 18.28-18.288 0-5.048-2.045-9.618-5.352-12.927l-261.357-261.357 261.357-261.357c3.307-3.309 5.352-7.879 5.352-12.927 0-10.097-8.184-18.283-18.28-18.288h-128c-5.050 0.001-9.621 2.049-12.93 5.358l-274.285 274.285c-3.308 3.309-5.354 7.88-5.354 12.929s2.046 9.619 5.354 12.929l274.286 274.286c3.309 3.309 7.881 5.357 12.93 5.357h127.998z" />
<glyph unicode="&#xe642;" glyph-name="carat-2-n-s" data-tags="carat-2-n-s" d="M219.429 566.856c0.004-10.097 8.19-18.28 18.288-18.28 5.048 0 9.618 2.045 12.927 5.352l261.357 261.357 261.357-261.357c3.309-3.307 7.879-5.352 12.927-5.352 10.097 0 18.283 8.184 18.288 18.28v128c-0.001 5.050-2.049 9.621-5.358 12.93l-274.285 274.285c-3.309 3.308-7.88 5.354-12.929 5.354s-9.619-2.046-12.929-5.354l-274.286-274.286c-3.309-3.309-5.357-7.881-5.357-12.93v-127.998zM219.429 457.144c0.004 10.097 8.19 18.28 18.288 18.28 5.048 0 9.618-2.045 12.927-5.352l261.357-261.357 261.357 261.357c3.309 3.307 7.879 5.352 12.927 5.352 10.097 0 18.283-8.184 18.288-18.28v-128c-0.001-5.050-2.049-9.621-5.358-12.93l-274.285-274.284c-3.309-3.308-7.88-5.354-12.929-5.354s-9.619 2.046-12.929 5.354l-274.286 274.286c-3.309 3.309-5.357 7.881-5.357 12.93v127.998z" />
<glyph unicode="&#xe643;" glyph-name="carat-2-e-w" data-tags="carat-2-e-w" d="M566.856 804.571c-10.097-0.004-18.28-8.19-18.28-18.288 0-5.048 2.045-9.618 5.352-12.927l261.357-261.357-261.357-261.357c-3.307-3.309-5.352-7.879-5.352-12.927 0-10.097 8.184-18.283 18.28-18.288h128c5.050 0.001 9.621 2.049 12.93 5.358l274.285 274.285c3.308 3.309 5.354 7.88 5.354 12.929s-2.046 9.619-5.354 12.929l-274.286 274.286c-3.309 3.309-7.881 5.357-12.93 5.357h-127.998zM457.144 804.571c10.097-0.004 18.28-8.19 18.28-18.288 0-5.048-2.045-9.618-5.352-12.927l-261.357-261.357 261.357-261.357c3.307-3.309 5.352-7.879 5.352-12.927 0-10.097-8.184-18.283-18.28-18.288h-128c-5.050 0.001-9.621 2.049-12.93 5.358l-274.284 274.285c-3.308 3.309-5.354 7.88-5.354 12.929s2.046 9.619 5.354 12.929l274.286 274.286c3.309 3.309 7.881 5.357 12.93 5.357h127.998z" />
<glyph unicode="&#xe644;" glyph-name="triangle-1-n" data-tags="triangle-1-n" d="M512 731.429c5.608-0.062 10.552-2.55 13.856-6.357l347.399-402.286c10.197-11.854 1.78-30.209-13.856-30.214h-694.798c-15.636 0.005-24.053 18.361-13.856 30.214l347.399 402.286c3.663 4.223 7.271 6.325 13.856 6.357z" />
<glyph unicode="&#xe645;" glyph-name="triangle-1-ne" data-tags="triangle-1-ne" d="M797.601 797.63c-4.13 4.039-9.542 7.279-14.721 6.913h-545.998c-16.060-1.206-23.297-20.706-11.914-32.097l547.464-547.478c11.391-11.384 30.89-4.146 32.097 11.914v546.026c0.408 5.744-2.157 9.902-6.928 14.722z" />
<glyph unicode="&#xe646;" glyph-name="triangle-1-e" data-tags="triangle-1-e" d="M731.429 512c-0.062 5.608-2.55 10.552-6.357 13.856l-402.286 347.399c-11.854 10.197-30.209 1.78-30.214-13.856v-694.798c0.005-15.636 18.361-24.053 30.214-13.856l402.286 347.399c4.223 3.663 6.325 7.271 6.357 13.856z" />
<glyph unicode="&#xe647;" glyph-name="triangle-1-se" data-tags="triangle-1-se" d="M797.63 226.399c4.039 4.13 7.279 9.542 6.913 14.721v545.998c-1.206 16.060-20.706 23.298-32.097 11.914l-547.478-547.464c-11.384-11.391-4.146-30.89 11.914-32.097h546.026c5.744-0.408 9.902 2.157 14.722 6.928z" />
<glyph unicode="&#xe648;" glyph-name="triangle-1-s" data-tags="triangle-1-s" d="M512 292.571c5.608 0.062 10.552 2.55 13.856 6.357l347.399 402.286c10.197 11.854 1.78 30.209-13.856 30.214h-694.798c-15.636-0.005-24.053-18.361-13.856-30.214l347.399-402.286c3.663-4.223 7.271-6.325 13.856-6.357z" />
<glyph unicode="&#xe649;" glyph-name="triangle-1-sw" data-tags="triangle-1-sw" d="M226.399 226.37c4.13-4.039 9.542-7.279 14.721-6.913h545.998c16.060 1.206 23.297 20.706 11.914 32.097l-547.464 547.478c-11.391 11.384-30.89 4.146-32.097-11.914v-546.026c-0.408-5.744 2.157-9.902 6.928-14.722z" />
<glyph unicode="&#xe64a;" glyph-name="triangle-1-w" data-tags="triangle-1-w" d="M292.571 512c0.062 5.608 2.55 10.552 6.357 13.856l402.286 347.399c11.854 10.197 30.209 1.78 30.214-13.856v-694.798c-0.005-15.636-18.361-24.053-30.214-13.856l-402.286 347.399c-4.223 3.663-6.325 7.271-6.357 13.856z" />
<glyph unicode="&#xe64b;" glyph-name="triangle-1-nw" data-tags="triangle-1-nw" d="M226.37 797.601c-4.039-4.13-7.279-9.542-6.913-14.721v-545.998c1.206-16.060 20.706-23.297 32.097-11.914l547.478 547.464c11.384 11.391 4.146 30.89-11.914 32.097h-546.026c-5.744 0.408-9.902-2.157-14.722-6.928z" />
<glyph unicode="&#xe64c;" glyph-name="triangle-1-n-stop" data-tags="triangle-1-n-stop" d="M877.714 768c0 20.261-16.311 36.571-36.571 36.571h-658.286c-20.261 0-36.571-16.311-36.571-36.571v-73.143c0-20.261 16.311-36.571 36.571-36.571h658.286c20.261 0 36.571 16.311 36.571 36.571v73.143zM512 658.286c-5.608-0.062-10.553-2.55-13.857-6.357l-347.429-402.286c-10.197-11.854-1.778-30.209 13.857-30.214h694.857c15.636 0.005 24.054 18.361 13.857 30.214l-347.429 402.286c-3.663 4.223-7.272 6.325-13.857 6.357z" />
<glyph unicode="&#xe64d;" glyph-name="triangle-1-e-stop" data-tags="triangle-1-e-stop" d="M768 146.286c20.261 0 36.571 16.311 36.571 36.571v658.286c0 20.261-16.311 36.571-36.571 36.571h-73.143c-20.261 0-36.571-16.311-36.571-36.571v-658.286c0-20.261 16.311-36.571 36.571-36.571h73.143zM658.286 512c-0.062 5.608-2.55 10.553-6.357 13.857l-402.286 347.429c-11.854 10.197-30.209 1.778-30.214-13.857v-694.857c0.005-15.636 18.361-24.054 30.214-13.857l402.286 347.429c4.223 3.663 6.325 7.272 6.357 13.857z" />
<glyph unicode="&#xe64e;" glyph-name="triangle-1-s-stop" data-tags="triangle-1-s-stop" d="M146.286 256c0-20.261 16.311-36.571 36.571-36.571h658.286c20.261 0 36.571 16.311 36.571 36.571v73.143c0 20.261-16.311 36.571-36.571 36.571h-658.286c-20.261 0-36.571-16.311-36.571-36.571v-73.143zM512 365.714c5.608 0.062 10.553 2.55 13.857 6.357l347.429 402.286c10.197 11.854 1.778 30.209-13.857 30.214h-694.857c-15.636-0.005-24.054-18.361-13.857-30.214l347.429-402.286c3.663-4.223 7.272-6.325 13.857-6.357z" />
<glyph unicode="&#xe64f;" glyph-name="triangle-1-w-stop" data-tags="triangle-1-w-stop" d="M256 877.714c-20.261 0-36.571-16.311-36.571-36.571v-658.286c0-20.261 16.311-36.571 36.571-36.571h73.143c20.261 0 36.571 16.311 36.571 36.571v658.286c0 20.261-16.311 36.571-36.571 36.571h-73.143zM365.714 512c0.062-5.608 2.55-10.553 6.357-13.857l402.286-347.429c11.854-10.197 30.209-1.778 30.214 13.857v694.857c-0.005 15.636-18.361 24.054-30.214 13.857l-402.286-347.429c-4.223-3.663-6.325-7.272-6.357-13.857z" />
<glyph unicode="&#xe650;" glyph-name="triangle-2-e" data-tags="triangle-2-e" d="M512 512c-0.062-5.608-2.55-10.552-6.357-13.856l-402.286-347.399c-11.854-10.197-30.209-1.78-30.214 13.856v694.798c0.005 15.636 18.361 24.053 30.214 13.856l402.286-347.399c4.223-3.663 6.325-7.271 6.357-13.856zM950.857 512c-0.062-5.608-2.55-10.552-6.357-13.856l-402.286-347.399c-11.854-10.197-30.209-1.78-30.214 13.856v694.798c0.005 15.636 18.361 24.053 30.214 13.856l402.286-347.399c4.223-3.663 6.325-7.271 6.357-13.856z" />
<glyph unicode="&#xe651;" glyph-name="triangle-2-w" data-tags="triangle-2-w" d="M512 512c0.062-5.608 2.55-10.552 6.357-13.856l402.286-347.399c11.854-10.197 30.209-1.78 30.214 13.856v694.798c-0.005 15.636-18.361 24.053-30.214 13.856l-402.286-347.399c-4.223-3.663-6.325-7.271-6.357-13.856zM73.143 512c0.062-5.608 2.55-10.552 6.357-13.856l402.286-347.399c11.854-10.197 30.209-1.78 30.214 13.856v694.798c-0.005 15.636-18.361 24.053-30.214 13.856l-402.286-347.399c-4.223-3.663-6.325-7.271-6.357-13.856z" />
<glyph unicode="&#xe652;" glyph-name="triangle-2-n-s" data-tags="triangle-2-n-s" d="M512 0c5.608 0.062 10.552 2.55 13.856 6.357l347.399 402.286c10.197 11.854 1.78 30.209-13.856 30.214h-694.798c-15.636-0.005-24.053-18.361-13.856-30.214l347.399-402.286c3.663-4.223 7.271-6.325 13.856-6.357zM512 1024c5.608-0.062 10.552-2.55 13.856-6.357l347.399-402.286c10.197-11.854 1.78-30.209-13.856-30.214h-694.798c-15.636 0.005-24.053 18.361-13.856 30.214l347.399 402.286c3.663 4.223 7.271 6.325 13.856 6.357z" />
<glyph unicode="&#xe653;" glyph-name="triangle-2-e-w" data-tags="triangle-2-e-w" d="M0 512c0.062-5.608 2.55-10.552 6.357-13.856l402.286-347.399c11.854-10.197 30.209-1.78 30.214 13.856v694.798c-0.005 15.636-18.361 24.053-30.214 13.856l-402.286-347.399c-4.223-3.663-6.325-7.271-6.357-13.856zM1024 512c-0.062-5.608-2.55-10.552-6.357-13.856l-402.286-347.399c-11.854-10.197-30.209-1.78-30.214 13.856v694.798c0.005 15.636 18.361 24.053 30.214 13.856l402.286-347.399c4.223-3.663 6.325-7.271 6.357-13.856z" />
<glyph unicode="&#xe654;" glyph-name="circle-triangle-n" data-tags="circle-triangle-n" d="M0 512c0-282.77 229.23-512 512-512s512 229.23 512 512c0 282.77-229.23 512-512 512s-512-229.23-512-512zM219.5 382.786c0.322 2.823 1.461 5.673 3.5 8.143l277.929 335.214c2.643 3.173 6.585 5.235 11.072 5.286 5.268-0.027 8.141-1.766 11.071-5.286l277.929-335.214c8.158-9.878 1.437-25.21-11.071-25.214h-555.857c-9.381 0.003-15.533 8.602-14.571 17.071z" />
<glyph unicode="&#xe655;" glyph-name="circle-triangle-e" data-tags="circle-triangle-e" d="M512 1024c-282.77 0-512-229.23-512-512s229.23-512 512-512c282.77 0 512 229.23 512 512s-229.23 512-512 512zM382.786 804.5c2.823-0.32 5.673-1.461 8.143-3.5l335.214-277.929c3.173-2.643 5.235-6.585 5.286-11.071-0.027-5.268-1.766-8.141-5.286-11.071l-335.214-277.929c-9.878-8.158-25.21-1.437-25.214 11.071v555.857c0.003 9.381 8.602 15.533 17.071 14.571z" />
<glyph unicode="&#xe656;" glyph-name="circle-triangle-s" data-tags="circle-triangle-s" d="M1024 512c0 282.77-229.23 512-512 512s-512-229.23-512-512c0-282.77 229.23-512 512-512s512 229.23 512 512zM804.5 641.214c-0.322-2.823-1.461-5.673-3.5-8.143l-277.929-335.214c-2.643-3.173-6.585-5.235-11.072-5.286-5.268 0.027-8.141 1.766-11.071 5.286l-277.929 335.214c-8.158 9.878-1.437 25.21 11.071 25.214h555.857c9.381-0.003 15.533-8.602 14.571-17.071z" />
<glyph unicode="&#xe657;" glyph-name="circle-triangle-w" data-tags="circle-triangle-w" d="M512 0c282.77 0 512 229.23 512 512s-229.23 512-512 512c-282.77 0-512-229.23-512-512s229.23-512 512-512zM641.214 219.5c-2.823 0.322-5.673 1.461-8.143 3.5l-335.214 277.929c-3.173 2.643-5.235 6.585-5.286 11.072 0.027 5.268 1.766 8.141 5.286 11.071l335.214 277.929c9.878 8.158 25.21 1.437 25.214-11.071v-555.857c-0.003-9.381-8.602-15.533-17.071-14.571z" />
<glyph unicode="&#xe658;" glyph-name="circle-b-triangle-n" data-tags="circle-b-triangle-n" d="M1024 512c0 282.77-229.23 512-512 512s-512-229.23-512-512c0-282.77 229.23-512 512-512s512 229.23 512 512zM914.286 512c0-222.176-180.109-402.286-402.286-402.286s-402.286 180.109-402.286 402.286c0 222.176 180.109 402.286 402.286 402.286s402.286-180.109 402.286-402.286zM731.357 415.929c-0.241 2.259-1.042 4.524-2.571 6.5l-208.5 268.214c-1.982 2.538-4.921 4.17-8.286 4.214-3.951-0.022-6.088-1.399-8.286-4.214l-208.5-268.214c-6.118-7.903-1.024-20.139 8.357-20.143h416.857c7.036 0.003 11.649 6.867 10.929 13.643z" />
<glyph unicode="&#xe659;" glyph-name="circle-b-triangle-e" data-tags="circle-b-triangle-e" d="M512 0c282.77 0 512 229.23 512 512s-229.23 512-512 512c-282.77 0-512-229.23-512-512s229.23-512 512-512zM512 109.714c-222.176 0-402.286 180.109-402.286 402.286s180.109 402.286 402.286 402.286c222.176 0 402.286-180.109 402.286-402.286s-180.109-402.286-402.286-402.286zM415.929 292.643c2.259 0.241 4.524 1.042 6.5 2.571l268.214 208.5c2.538 1.982 4.17 4.921 4.214 8.286-0.022 3.951-1.399 6.088-4.214 8.286l-268.214 208.5c-7.903 6.118-20.139 1.024-20.143-8.357v-416.857c0.003-7.036 6.867-11.649 13.643-10.929z" />
<glyph unicode="&#xe65a;" glyph-name="circle-b-triangle-s" data-tags="circle-b-triangle-s" d="M0 512c0-282.77 229.23-512 512-512s512 229.23 512 512c0 282.77-229.23 512-512 512s-512-229.23-512-512zM109.714 512c0 222.176 180.109 402.286 402.286 402.286s402.286-180.109 402.286-402.286c0-222.176-180.109-402.286-402.286-402.286s-402.286 180.109-402.286 402.286zM292.643 608.071c0.241-2.259 1.042-4.524 2.571-6.5l208.5-268.214c1.982-2.538 4.921-4.17 8.286-4.214 3.951 0.022 6.088 1.398 8.286 4.214l208.5 268.214c6.118 7.903 1.024 20.139-8.357 20.143h-416.857c-7.036-0.003-11.649-6.867-10.929-13.643z" />
<glyph unicode="&#xe65b;" glyph-name="circle-b-triangle-w" data-tags="circle-b-triangle-w" d="M512 1024c-282.77 0-512-229.23-512-512s229.23-512 512-512c282.77 0 512 229.23 512 512s-229.23 512-512 512zM512 914.286c222.176 0 402.286-180.109 402.286-402.286s-180.109-402.286-402.286-402.286c-222.176 0-402.286 180.109-402.286 402.286s180.109 402.286 402.286 402.286zM608.071 731.357c-2.259-0.24-4.524-1.042-6.5-2.571l-268.214-208.5c-2.538-1.982-4.17-4.921-4.214-8.286 0.022-3.951 1.399-6.088 4.214-8.286l268.214-208.5c7.903-6.118 20.139-1.024 20.143 8.357v416.857c-0.003 7.036-6.867 11.65-13.643 10.929z" />
<glyph unicode="&#xe65c;" glyph-name="bullet" data-tags="bullet" d="M731.429 512c0-121.187-98.242-219.429-219.429-219.429s-219.429 98.242-219.429 219.429c0 121.187 98.242 219.429 219.429 219.429s219.429-98.242 219.429-219.429z" />
<glyph unicode="&#xe65d;" glyph-name="circle" data-tags="circle" d="M512 1024c-282.77 0-512-229.23-512-512s229.23-512 512-512c282.77 0 512 229.23 512 512s-229.23 512-512 512zM512 914.286c222.176 0 402.286-180.109 402.286-402.286s-180.109-402.286-402.286-402.286c-222.176 0-402.286 180.109-402.286 402.286s180.109 402.286 402.286 402.286z" />
<glyph unicode="&#xe65e;" glyph-name="alert" data-tags="alert" d="M512.286 1024c-0.085 0.001-0.186 0.001-0.288 0.001-14.236 0-26.573-8.134-32.616-20.008l-475.525-951.065c-2.434-4.765-3.86-10.392-3.86-16.353 0-20.199 16.375-36.574 36.574-36.575h950.857c20.199 0.001 36.574 16.376 36.574 36.575 0 5.961-1.426 11.589-3.956 16.561l-475.333 950.649c-6.109 12.023-18.354 20.135-32.502 20.215zM475.429 731.429h73.143c20.261 0 36.571-16.311 36.571-36.571v-292.571c0-20.261-16.311-36.571-36.571-36.571h-73.143c-20.261 0-36.571 16.311-36.571 36.571v292.571c0 20.261 16.311 36.571 36.571 36.571zM475.429 256h73.143c20.261 0 36.571-16.311 36.571-36.571v-73.143c0-20.261-16.311-36.571-36.571-36.571h-73.143c-20.261 0-36.571 16.311-36.571 36.571v73.143c0 20.261 16.311 36.571 36.571 36.571z" />
<glyph unicode="&#xe65f;" glyph-name="alert-b" data-tags="alert-b" d="M512.286 1024c-0.085 0.001-0.186 0.001-0.288 0.001-14.236 0-26.573-8.134-32.616-20.008l-475.525-951.065c-2.434-4.765-3.86-10.392-3.86-16.353 0-20.199 16.375-36.574 36.574-36.575h950.857c20.199 0.001 36.574 16.376 36.574 36.575 0 5.961-1.426 11.589-3.956 16.561l-475.333 950.649c-6.109 12.023-18.354 20.135-32.502 20.215zM512 905.643l416.286-832.5h-832.571l416.286 832.5zM475.429 658.286h73.143c20.198 0 36.571-16.374 36.571-36.571v-219.429c0-20.198-16.374-36.571-36.571-36.571h-73.143c-20.198 0-36.571 16.374-36.571 36.571v219.429c0 20.198 16.374 36.571 36.571 36.571zM475.429 292.571h73.143c20.198 0 36.571-16.374 36.571-36.571v-71.96c0-20.198-16.374-36.571-36.571-36.571h-73.143c-20.198 0-36.571 16.374-36.571 36.571v71.96c0 20.198 16.374 36.571 36.571 36.571z" />
<glyph unicode="&#xe660;" glyph-name="help" data-tags="help" d="M520.143 1024c-113.024 0-219.968-28.274-320.786-84.786l73.929-148.5c86.803 44.306 164.114 66.429 231.929 66.429 38.88 0 69.156-7.629 90.857-23s32.571-37.757 32.571-67.143c0-26.222-7.7-49.966-23.071-71.214-14.919-21.249-46.101-48.807-93.571-82.714-49.279-36.168-83.178-70.33-101.714-102.429s-27.786-69.813-27.786-113.214v-50.214h179.714v40.714c0 27.126 5.626 49.058 16.929 65.786 11.754 16.728 39.313 41.115 82.714 73.214 63.294 45.21 106.252 85.904 128.857 122.071s33.929 79.126 33.929 128.857c0 74.596-27.63 134.242-82.786 179-54.704 44.758-128.582 67.143-221.714 67.143zM475.429 219.429c-60.594 0-109.714-49.121-109.714-109.714s49.121-109.714 109.714-109.714c60.594 0 109.714 49.121 109.714 109.714s-49.121 109.714-109.714 109.714z" />
<glyph unicode="&#xe661;" glyph-name="circle-help" data-tags="circle-help" d="M512 1024c-282.77 0-512-229.23-512-512s229.23-512 512-512c282.77 0 512 229.23 512 512s-229.23 512-512 512zM517.786 877.714c66.523 0 119.354-15.959 158.429-47.929 39.397-31.97 59.071-74.574 59.071-127.857 0-35.522-8.068-66.237-24.214-92.071s-46.79-54.922-92-87.214c-31.001-22.928-50.747-40.337-59.143-52.286-8.073-11.948-12.071-27.624-12.071-47v-29.071h-128.357v35.857c0 31.001 6.617 57.929 19.857 80.857s37.444 47.38 72.643 73.214c33.907 24.22 56.201 43.894 66.857 59.071 10.98 15.178 16.429 32.127 16.429 50.857 0 20.99-7.714 36.949-23.214 47.929s-37.157 16.429-64.929 16.429c-48.439 0-103.641-15.782-165.643-47.429l-52.786 106.071c72.013 40.366 148.34 60.571 229.071 60.571zM485.857 303c43.273-0.006 78.351-35.084 78.357-78.357-0.006-43.274-35.084-78.352-78.357-78.358-43.274 0.006-78.352 35.084-78.358 78.357 0.006 43.274 35.084 78.352 78.357 78.358z" />
<glyph unicode="&#xe662;" glyph-name="circle-b-help" data-tags="circle-b-help" d="M512 1024c-282.77 0-512-229.23-512-512s229.23-512 512-512c282.77 0 512 229.23 512 512s-229.23 512-512 512zM512 914.286c222.176 0 402.286-180.109 402.286-402.286s-180.109-402.286-402.286-402.286c-222.176 0-402.286 180.109-402.286 402.286s180.109 402.286 402.286 402.286zM516.653 804.571c-64.585 0-125.696-16.156-183.306-48.449l42.245-84.857c49.602 25.317 93.779 37.959 132.531 37.959 22.217 0 39.518-4.359 51.918-13.143s18.612-21.575 18.612-38.367c0-14.984-4.4-28.552-13.184-40.694-8.525-12.142-26.344-27.89-53.469-47.265-28.159-20.667-47.53-40.188-58.122-58.531s-15.878-39.893-15.878-64.694v-28.694h102.694v23.265c0 15.5 3.215 28.033 9.673 37.592 6.717 9.559 22.465 23.495 47.265 41.837 36.168 25.834 60.716 49.088 73.633 69.755s19.388 45.215 19.388 73.633c0 42.626-15.789 76.71-47.306 102.286-31.259 25.576-73.476 38.367-126.694 38.367zM491.102 344.816c-34.625 0-62.694-28.069-62.694-62.694 0 0 0 0 0 0 0-34.625 28.069-62.694 62.694-62.694s62.694 28.069 62.694 62.694c0 0 0 0 0 0 0 34.625-28.069 62.694-62.694 62.694z" />
<glyph unicode="&#xe663;" glyph-name="info" data-tags="info" d="M621.714 914.286c0 60.594-49.121 109.714-109.714 109.714s-109.714-49.121-109.714-109.714c0-60.594 49.121-109.714 109.714-109.714s109.714 49.121 109.714 109.714zM310.857 658.286c-10.13 0-18.286-8.155-18.286-18.286v-36.571c0-10.13 8.155-18.286 18.286-18.286h91.429v-512h-91.429c-10.13 0-18.286-8.155-18.286-18.286v-36.571c0-10.13 8.155-18.286 18.286-18.286h402.286c10.13 0 18.286 8.155 18.286 18.286v36.571c0 10.13-8.155 18.286-18.286 18.286h-91.429v512c0 40.521-32.622 73.143-73.143 73.143z" />
<glyph unicode="&#xe664;" glyph-name="circle-info" data-tags="circle-info" d="M512 0c-282.77 0-512 229.23-512 512s229.23 512 512 512c282.77 0 512-229.23 512-512s-229.23-512-512-512zM475.429 146.286h73.143c20.261 0 36.571 16.311 36.571 36.571v365.714c0 20.261-16.311 36.571-36.571 36.571h-73.143c-20.261 0-36.571-16.311-36.571-36.571v-365.714c0-20.261 16.311-36.571 36.571-36.571zM475.429 731.429h73.143c20.261 0 36.571 16.311 36.571 36.571v73.143c0 20.261-16.311 36.571-36.571 36.571h-73.143c-20.261 0-36.571-16.311-36.571-36.571v-73.143c0-20.261 16.311-36.571 36.571-36.571z" />
<glyph unicode="&#xe665;" glyph-name="circle-b-info" data-tags="circle-b-info" d="M512 1024c-282.77 0-512-229.23-512-512s229.23-512 512-512c282.77 0 512 229.23 512 512s-229.23 512-512 512zM512 914.286c222.176 0 402.286-180.109 402.286-402.286s-180.109-402.286-402.286-402.286c-222.176 0-402.286 180.109-402.286 402.286s180.109 402.286 402.286 402.286zM475.429 585.143h73.143c20.198 0 36.571-16.374 36.571-36.571v-292.571c0-20.198-16.374-36.571-36.571-36.571h-73.143c-20.198 0-36.571 16.374-36.571 36.571v292.571c0 20.198 16.374 36.571 36.571 36.571zM475.429 804.571h73.143c20.198 0 36.571-16.374 36.571-36.571v-73.143c0-20.198-16.374-36.571-36.571-36.571h-73.143c-20.198 0-36.571 16.374-36.571 36.571v73.143c0 20.198 16.374 36.571 36.571 36.571z" />
<glyph unicode="&#xe666;" glyph-name="notice" data-tags="notice" d="M621.714 109.714c0-60.594-49.121-109.714-109.714-109.714s-109.714 49.121-109.714 109.714c0 60.594 49.121 109.714 109.714 109.714s109.714-49.121 109.714-109.714zM475.429 1024h73.143c40.521 0 73.143-32.622 73.143-73.143v-512c0-40.521-32.622-73.143-73.143-73.143h-73.143c-40.521 0-73.143 32.622-73.143 73.143v512c0 40.521 32.622 73.143 73.143 73.143z" />
<glyph unicode="&#xe667;" glyph-name="circle-notice" data-tags="circle-notice" d="M512 1024c-282.77 0-512-229.23-512-512s229.23-512 512-512c282.77 0 512 229.23 512 512s-229.23 512-512 512zM475.429 877.714h73.143c20.261 0 36.571-16.311 36.571-36.571v-365.714c0-20.261-16.311-36.571-36.571-36.571h-73.143c-20.261 0-36.571 16.311-36.571 36.571v365.714c0 20.261 16.311 36.571 36.571 36.571zM475.429 292.571h73.143c20.261 0 36.571-16.311 36.571-36.571v-73.143c0-20.261-16.311-36.571-36.571-36.571h-73.143c-20.261 0-36.571 16.311-36.571 36.571v73.143c0 20.261 16.311 36.571 36.571 36.571z" />
<glyph unicode="&#xe668;" glyph-name="circle-b-notice" data-tags="circle-b-notice" d="M512 1024c-282.77 0-512-229.23-512-512s229.23-512 512-512c282.77 0 512 229.23 512 512s-229.23 512-512 512zM512 914.286c222.176 0 402.286-180.109 402.286-402.286s-180.109-402.286-402.286-402.286c-222.176 0-402.286 180.109-402.286 402.286s180.109 402.286 402.286 402.286zM475.429 438.857h73.143c20.198 0 36.571 16.374 36.571 36.571v292.571c0 20.198-16.374 36.571-36.571 36.571h-73.143c-20.198 0-36.571-16.374-36.571-36.571v-292.571c0-20.198 16.374-36.571 36.571-36.571zM475.429 219.429h73.143c20.198 0 36.571 16.374 36.571 36.571v73.143c0 20.198-16.374 36.571-36.571 36.571h-73.143c-20.198 0-36.571-16.374-36.571-36.571v-73.143c0-20.198 16.374-36.571 36.571-36.571z" />
<glyph unicode="&#xe669;" glyph-name="grip-diagonal-se" data-tags="grip-diagonal-se" d="M1024 624.357l-624.357-624.357h103.429l520.929 520.929v103.429zM1024 417.5l-417.5-417.5h103.571l313.929 313.929v103.571zM1024 210.5l-210.5-210.5h103.429l107.071 107.071v103.429z" />
<glyph unicode="&#xe66a;" glyph-name="gripsmall-diagonal-se" data-tags="gripsmall-diagonal-se" d="M1024 404.929l-404.929-404.929h103.429l301.5 301.5v103.429zM1024 198.071l-198.071-198.071h103.571l94.5 94.5v103.571z" />
<glyph unicode="&#xe66b;" glyph-name="grip-solid-horizontal" data-tags="grip-solid-horizontal" d="M877.714 694.857v-73.143c0-20.198-16.374-36.571-36.571-36.571h-658.286c-20.198 0-36.571 16.374-36.571 36.571v73.143c0 20.198 16.374 36.571 36.571 36.571h658.286c20.198 0 36.571-16.374 36.571-36.571zM877.714 402.286v-73.143c0-20.198-16.374-36.571-36.571-36.571h-658.286c-20.198 0-36.571 16.374-36.571 36.571v73.143c0 20.198 16.374 36.571 36.571 36.571h658.286c20.198 0 36.571-16.374 36.571-36.571z" />
<glyph unicode="&#xe66c;" glyph-name="grip-dotted-horizontal" data-tags="grip-dotted-horizontal" d="M841.143 292.571h-73.143c-20.198 0-36.571 16.374-36.571 36.571v73.143c0 20.198 16.374 36.571 36.571 36.571h73.143c20.198 0 36.571-16.374 36.571-36.571v-73.143c0-20.198-16.374-36.571-36.571-36.571zM548.571 292.571h-73.143c-20.198 0-36.571 16.374-36.571 36.571v73.143c0 20.198 16.374 36.571 36.571 36.571h73.143c20.198 0 36.571-16.374 36.571-36.571v-73.143c0-20.198-16.374-36.571-36.571-36.571zM256 292.571h-73.143c-20.198 0-36.571 16.374-36.571 36.571v73.143c0 20.198 16.374 36.571 36.571 36.571h73.143c20.198 0 36.571-16.374 36.571-36.571v-73.143c0-20.198-16.374-36.571-36.571-36.571zM841.143 585.143h-73.143c-20.198 0-36.571 16.374-36.571 36.571v73.143c0 20.198 16.374 36.571 36.571 36.571h73.143c20.198 0 36.571-16.374 36.571-36.571v-73.143c0-20.198-16.374-36.571-36.571-36.571zM548.571 585.143h-73.143c-20.198 0-36.571 16.374-36.571 36.571v73.143c0 20.198 16.374 36.571 36.571 36.571h73.143c20.198 0 36.571-16.374 36.571-36.571v-73.143c0-20.198-16.374-36.571-36.571-36.571zM256 585.143h-73.143c-20.198 0-36.571 16.374-36.571 36.571v73.143c0 20.198 16.374 36.571 36.571 36.571h73.143c20.198 0 36.571-16.374 36.571-36.571v-73.143c0-20.198-16.374-36.571-36.571-36.571z" />
<glyph unicode="&#xe66d;" glyph-name="grip-solid-vertical" data-tags="grip-solid-vertical" d="M621.714 877.714h73.143c20.198 0 36.571-16.374 36.571-36.571v-658.286c0-20.198-16.374-36.571-36.571-36.571h-73.143c-20.198 0-36.571 16.374-36.571 36.571v658.286c0 20.198 16.374 36.571 36.571 36.571zM329.143 877.714h73.143c20.198 0 36.571-16.374 36.571-36.571v-658.286c0-20.198-16.374-36.571-36.571-36.571h-73.143c-20.198 0-36.571 16.374-36.571 36.571v658.286c0 20.198 16.374 36.571 36.571 36.571z" />
<glyph unicode="&#xe66e;" glyph-name="grip-dotted-vertical" data-tags="grip-dotted-vertical" d="M292.571 182.857v73.143c0 20.198 16.374 36.571 36.571 36.571h73.143c20.198 0 36.571-16.374 36.571-36.571v-73.143c0-20.198-16.374-36.571-36.571-36.571h-73.143c-20.198 0-36.571 16.374-36.571 36.571zM292.571 475.429v73.143c0 20.198 16.374 36.571 36.571 36.571h73.143c20.198 0 36.571-16.374 36.571-36.571v-73.143c0-20.198-16.374-36.571-36.571-36.571h-73.143c-20.198 0-36.571 16.374-36.571 36.571zM292.571 768v73.143c0 20.198 16.374 36.571 36.571 36.571h73.143c20.198 0 36.571-16.374 36.571-36.571v-73.143c0-20.198-16.374-36.571-36.571-36.571h-73.143c-20.198 0-36.571 16.374-36.571 36.571zM585.143 182.857v73.143c0 20.198 16.374 36.571 36.571 36.571h73.143c20.198 0 36.571-16.374 36.571-36.571v-73.143c0-20.198-16.374-36.571-36.571-36.571h-73.143c-20.198 0-36.571 16.374-36.571 36.571zM585.143 475.429v73.143c0 20.198 16.374 36.571 36.571 36.571h73.143c20.198 0 36.571-16.374 36.571-36.571v-73.143c0-20.198-16.374-36.571-36.571-36.571h-73.143c-20.198 0-36.571 16.374-36.571 36.571zM585.143 768v73.143c0 20.198 16.374 36.571 36.571 36.571h73.143c20.198 0 36.571-16.374 36.571-36.571v-73.143c0-20.198-16.374-36.571-36.571-36.571h-73.143c-20.198 0-36.571 16.374-36.571 36.571z" />
<glyph unicode="&#xe66f;" glyph-name="check" data-tags="check" d="M804 877.714c-10.536-0.18-19.962-4.788-26.522-12.038l-376.335-410.534-155.857 155.857c-6.618 6.616-15.76 10.707-25.857 10.707s-19.239-4.092-25.857-10.707l-109.714-109.714c-6.616-6.618-10.707-15.76-10.707-25.857s4.092-19.239 10.707-25.857l292.571-292.571c6.616-6.603 15.75-10.687 25.837-10.687 10.541 0 20.041 4.459 26.716 11.595l512.019 548.592c6.090 6.516 9.83 15.295 9.83 24.949 0 10.087-4.084 19.221-10.688 25.838l-109.714 109.714c-6.619 6.622-15.766 10.719-25.868 10.719-0.197 0-0.394-0.002-0.59-0.005z" />
<glyph unicode="&#xe670;" glyph-name="circle-check" data-tags="circle-check" d="M519.5 1023.929c-2.255 0.036-4.915 0.056-7.581 0.056-141.361 0-269.342-57.288-361.992-149.914-92.672-92.656-149.993-220.669-149.993-362.070s57.321-269.414 149.993-362.071c92.658-92.674 220.671-149.995 362.072-149.995s269.414 57.321 362.071 149.993c92.674 92.658 149.995 220.671 149.995 362.072s-57.321 269.414-149.993 362.071c-91.795 91.77-218.272 148.852-358.081 149.897zM792.286 758.357c9.171 0 18.33-3.551 25.357-10.714l50.714-51.714c14.055-14.327 14.055-37.388 0-51.714l-405.857-413.786c-14.055-14.327-36.731-14.327-50.786 0l-253.714 258.571c-14.055 14.327-14.055 37.459 0 51.786l50.786 51.714c14.055 14.327 36.66 14.327 50.714 0l177.571-181.071 329.857 336.214c7.027 7.163 16.186 10.714 25.357 10.714z" />
<glyph unicode="&#xe671;" glyph-name="circle-b-check" data-tags="circle-b-check" d="M512 1024c-282.77 0-512-229.23-512-512s229.23-512 512-512c282.77 0 512 229.23 512 512s-229.23 512-512 512zM512 914.286c222.176 0 402.286-180.109 402.286-402.286s-180.109-402.286-402.286-402.286c-222.176 0-402.286 180.109-402.286 402.286s180.109 402.286 402.286 402.286zM230.173 488.772c-12.539-15.914-14.326-37.393 0-51.72l206.879-206.879c14.326-14.326 38.385-15.254 51.72 0l306.664 350.793c13.335 15.254 14.326 37.393 0 51.72l-51.72 51.72c-14.326 14.326-38.347 15.22-51.72 0l-240.052-273.213-129.299 129.3c-14.326 14.326-39.18 15.914-51.72 0z" />
<glyph unicode="&#xe672;" glyph-name="check-off" data-tags="check-off" d="M146.286 1024c-81.042 0-146.286-65.243-146.286-146.286v-731.429c0-81.042 65.243-146.286 146.286-146.286h731.429c81.042 0 146.286 65.243 146.286 146.286v731.429c0 81.042-65.243 146.286-146.286 146.286h-731.429zM152.357 943.571h719.286c39.846 0 71.929-32.083 71.929-71.929v-719.286c0-39.846-32.083-71.929-71.929-71.929h-719.286c-39.846 0-71.929 32.083-71.929 71.929v719.286c0 39.846 32.083 71.929 71.929 71.929z" />
<glyph unicode="&#xe673;" glyph-name="check-on" data-tags="check-on" d="M230.173 488.772c-12.539-15.914-14.326-37.393 0-51.72l206.879-206.879c14.326-14.326 38.385-15.254 51.72 0l306.664 350.793c13.335 15.254 14.326 37.393 0 51.72l-51.72 51.72c-14.326 14.326-38.347 15.22-51.72 0l-240.052-273.213-129.299 129.3c-14.326 14.326-39.18 15.914-51.72 0zM146.286 1024c-81.042 0-146.286-65.243-146.286-146.286v-731.429c0-81.042 65.243-146.286 146.286-146.286h731.429c81.042 0 146.286 65.243 146.286 146.286v731.429c0 81.042-65.243 146.286-146.286 146.286h-731.429zM152.357 943.571h719.286c39.846 0 71.929-32.083 71.929-71.929v-719.286c0-39.846-32.083-71.929-71.929-71.929h-719.286c-39.846 0-71.929 32.083-71.929 71.929v719.286c0 39.846 32.083 71.929 71.929 71.929z" />
<glyph unicode="&#xe674;" glyph-name="cancel" data-tags="cancel" d="M874.039 149.961c92.654 92.654 149.961 220.654 149.961 362.039s-57.308 269.385-149.961 362.039c-92.654 92.654-220.654 149.961-362.039 149.961s-269.385-57.308-362.039-149.961c-92.654-92.654-149.961-220.654-149.961-362.039s57.308-269.385 149.961-362.039c92.654-92.654 220.654-149.961 362.039-149.961s269.385 57.308 362.039 149.961zM770.599 253.401c-66.153-66.014-157.469-106.835-258.318-106.835-75.098 0-144.909 22.636-202.983 61.456l507.768 505.604c37.985-56.745 60.62-126.557 60.62-201.654 0-100.975-40.923-192.393-107.088-258.572zM713.374 816.814l-506.44-506.44c-37.985 56.745-60.62 126.557-60.62 201.654 0 100.975 40.923 192.393 107.088 258.572 66.153 66.013 157.468 106.834 258.318 106.834 75.098 0 144.909-22.636 202.983-61.456z" />
<glyph unicode="&#xe675;" glyph-name="close" data-tags="close" d="M255.429 877.709c-9.992-0.164-18.985-4.311-25.486-10.916l-72.942-72.941c-6.616-6.618-10.707-15.76-10.707-25.857s4.092-19.239 10.707-25.857l230.143-230.143-230.143-230.143c-6.616-6.618-10.707-15.76-10.707-25.857s4.092-19.239 10.707-25.857l73.143-73.143c6.618-6.616 15.76-10.707 25.857-10.707s19.239 4.092 25.857 10.707l230.143 230.143 230.143-230.143c6.618-6.616 15.76-10.707 25.857-10.707s19.239 4.092 25.857 10.707l73.143 73.143c6.616 6.618 10.707 15.76 10.707 25.857s-4.092 19.239-10.707 25.857l-230.143 230.143 230.143 230.143c6.616 6.618 10.707 15.76 10.707 25.857s-4.092 19.239-10.707 25.857l-73.143 73.143c-6.618 6.616-15.76 10.707-25.857 10.707s-19.239-4.092-25.857-10.707l-230.143-230.143-230.143 230.143c-6.619 6.622-15.766 10.719-25.868 10.719-0.197 0-0.394-0.002-0.59-0.005z" />
<glyph unicode="&#xe676;" glyph-name="circle-close" data-tags="circle-close" d="M149.961 874.039c-92.654-92.654-149.961-220.654-149.961-362.039s57.308-269.385 149.961-362.039c92.654-92.654 220.654-149.961 362.039-149.961s269.385 57.308 362.039 149.961c92.654 92.654 149.961 220.654 149.961 362.039s-57.308 269.385-149.961 362.039c-92.654 92.654-220.654 149.961-362.039 149.961s-269.385-57.308-362.039-149.961zM253.401 718.879l51.72 51.72c14.326 14.326 37.393 14.326 51.72 0l155.159-155.159 155.159 155.159c14.326 14.326 37.393 14.326 51.72 0l51.72-51.72c14.326-14.326 14.326-37.393 0-51.72l-155.159-155.159 155.159-155.159c14.326-14.326 14.326-37.393 0-51.72l-51.72-51.72c-14.326-14.326-37.393-14.326-51.72 0l-155.159 155.159-155.159-155.159c-14.326-14.326-37.393-14.326-51.72 0l-51.72 51.72c-14.326 14.326-14.326 37.393 0 51.72l155.159 155.159-155.159 155.159c-14.326 14.326-14.326 37.393 0 51.72z" />
<glyph unicode="&#xe677;" glyph-name="circle-b-close" data-tags="circle-b-close" d="M512 1024c-282.77 0-512-229.23-512-512s229.23-512 512-512c282.77 0 512 229.23 512 512s-229.23 512-512 512zM512 914.286c222.176 0 402.286-180.109 402.286-402.286s-180.109-402.286-402.286-402.286c-222.176 0-402.286 180.109-402.286 402.286s180.109 402.286 402.286 402.286zM279.261 382.7l362.039 362.039c14.282 14.282 37.438 14.282 51.72 0l51.72-51.72c14.282-14.282 14.282-37.438 0-51.72l-362.039-362.039c-14.282-14.282-37.438-14.282-51.72 0l-51.72 51.72c-14.282 14.282-14.282 37.438 0 51.72zM279.261 693.019l51.72 51.72c14.282 14.282 37.438 14.282 51.72 0l362.039-362.039c14.282-14.282 14.282-37.438 0-51.72l-51.72-51.72c-14.282-14.282-37.438-14.282-51.72 0l-362.039 362.039c-14.282 14.282-14.282 37.438 0 51.72z" />
<glyph unicode="&#xe678;" glyph-name="closethick" data-tags="closethick" d="M255.429 950.857c-9.992-0.164-18.985-4.311-25.486-10.916l-146.085-146.084c-6.616-6.618-10.707-15.76-10.707-25.857s4.092-19.239 10.707-25.857l230.143-230.143-230.143-230.143c-6.616-6.618-10.707-15.76-10.707-25.857s4.092-19.239 10.707-25.857l146.286-146.286c6.618-6.616 15.76-10.707 25.857-10.707s19.239 4.092 25.857 10.707l230.143 230.143 230.143-230.143c6.618-6.616 15.76-10.707 25.857-10.707s19.239 4.092 25.857 10.707l146.286 146.286c6.616 6.618 10.707 15.76 10.707 25.857s-4.092 19.239-10.707 25.857l-230.143 230.143 230.143 230.143c6.616 6.618 10.707 15.76 10.707 25.857s-4.092 19.239-10.707 25.857l-146.286 146.286c-6.618 6.616-15.76 10.707-25.857 10.707s-19.239-4.092-25.857-10.707l-230.143-230.143-230.143 230.143c-6.619 6.622-15.766 10.719-25.868 10.719-0.197 0-0.394-0.002-0.59-0.005z" />
<glyph unicode="&#xe679;" glyph-name="squaresmall-close" data-tags="squaresmall-close" d="M292.571 786.286c-30.075 0-54.857-24.783-54.857-54.857v-365.714c0-30.075 24.783-54.857 54.857-54.857h365.714c30.075 0 54.857 24.783 54.857 54.857v365.714c0 30.075-24.783 54.857-54.857 54.857h-365.714zM579.786 690c8.496-0.55 17.14-4.354 24.071-11.286l1.714-1.714c13.863-13.863 15.177-34.823 3-47l-81.429-81.429 77.571-77.571c14.326-14.326 16.035-35.68 3.857-47.857l-7.714-7.714c-12.177-12.177-33.531-10.469-47.857 3.857l-77.571 77.571-81.429-81.429c-12.177-12.177-33.137-10.863-47 3l-1.714 1.714c-13.863 13.863-15.177 34.823-3 47l81.429 81.429-77.571 77.571c-14.326 14.326-16.035 35.68-3.857 47.857l7.714 7.714c6.089 6.089 14.496 8.701 23.143 8s17.551-4.694 24.714-11.857l77.571-77.571 81.429 81.429c6.089 6.089 14.432 8.836 22.929 8.286z" />
<glyph unicode="&#xe67a;" glyph-name="circlesmall-close" data-tags="circlesmall-close" d="M292.571 786.286c-30.075 0-54.857-24.783-54.857-54.857v-365.714c0-30.075 24.783-54.857 54.857-54.857h365.714c30.075 0 54.857 24.783 54.857 54.857v365.714c0 30.075-24.783 54.857-54.857 54.857h-365.714zM292.571 749.714h365.714c10.447 0 18.286-7.839 18.286-18.286v-365.714c0-10.447-7.839-18.286-18.286-18.286h-365.714c-10.447 0-18.286 7.839-18.286 18.286v365.714c0 10.447 7.839 18.286 18.286 18.286zM397.849 677.871l206.879-206.879c14.282-14.282 16.019-35.701 3.879-47.841l-7.758-7.758c-12.14-12.14-33.559-10.403-47.841 3.879l-206.879 206.879c-14.282 14.282-16.019 35.701-3.879 47.841l7.758 7.758c12.14 12.14 33.559 10.403 47.841-3.879zM603.892 678.707l1.672-1.672c13.82-13.82 15.183-34.865 3.043-47.005l-214.637-214.637c-12.14-12.14-33.184-10.777-47.005 3.043l-1.672 1.672c-13.82 13.82-15.183 34.865-3.043 47.005l214.637 214.637c12.14 12.14 33.184 10.777 47.005-3.043z" />
<glyph unicode="&#xe67b;" glyph-name="minus" data-tags="minus" d="M182.857 585.143h658.286c20.198 0 36.571-16.374 36.571-36.571v-73.143c0-20.198-16.374-36.571-36.571-36.571h-658.286c-20.198 0-36.571 16.374-36.571 36.571v73.143c0 20.198 16.374 36.571 36.571 36.571z" />
<glyph unicode="&#xe67c;" glyph-name="circle-minus" data-tags="circle-minus" d="M512 1024c-282.77 0-512-229.23-512-512s229.23-512 512-512c282.77 0 512 229.23 512 512s-229.23 512-512 512zM219.429 585.143h585.143c20.261 0 36.571-16.311 36.571-36.571v-73.143c0-20.261-16.311-36.571-36.571-36.571h-585.143c-20.261 0-36.571 16.311-36.571 36.571v73.143c0 20.261 16.311 36.571 36.571 36.571z" />
<glyph unicode="&#xe67d;" glyph-name="circle-b-minus" data-tags="circle-b-minus" d="M512 1024c-282.77 0-512-229.23-512-512s229.23-512 512-512c282.77 0 512 229.23 512 512s-229.23 512-512 512zM512 914.286c222.176 0 402.286-180.109 402.286-402.286s-180.109-402.286-402.286-402.286c-222.176 0-402.286 180.109-402.286 402.286s180.109 402.286 402.286 402.286zM256 585.143h512c20.198 0 36.571-16.374 36.571-36.571v-73.143c0-20.198-16.374-36.571-36.571-36.571h-512c-20.198 0-36.571 16.374-36.571 36.571v73.143c0 20.198 16.374 36.571 36.571 36.571z" />
<glyph unicode="&#xe67e;" glyph-name="minusthick" data-tags="minusthick" d="M146.286 658.286h731.429c40.396 0 73.143-32.747 73.143-73.143v-146.286c0-40.396-32.747-73.143-73.143-73.143h-731.429c-40.396 0-73.143 32.747-73.143 73.143v146.286c0 40.396 32.747 73.143 73.143 73.143z" />
<glyph unicode="&#xe67f;" glyph-name="squaresmall-minus" data-tags="squaresmall-minus" d="M292.571 786.286c-30.075 0-54.857-24.783-54.857-54.857v-365.714c0-30.075 24.783-54.857 54.857-54.857h365.714c30.075 0 54.857 24.783 54.857 54.857v365.714c0 30.075-24.783 54.857-54.857 54.857h-365.714zM364.5 585.143h221.857c19.606 0 35.357-13.85 35.357-31.071v-11c0-17.221-15.752-31.071-35.357-31.071h-221.857c-19.605 0-35.357 13.85-35.357 31.071v11c0 17.221 15.752 31.071 35.357 31.071z" />
<glyph unicode="&#xe680;" glyph-name="circlesmall-minus" data-tags="circlesmall-minus" d="M292.571 786.286c-30.075 0-54.857-24.783-54.857-54.857v-365.714c0-30.075 24.783-54.857 54.857-54.857h365.714c30.075 0 54.857 24.783 54.857 54.857v365.714c0 30.075-24.783 54.857-54.857 54.857h-365.714zM292.571 749.714h365.714c10.447 0 18.286-7.839 18.286-18.286v-365.714c0-10.447-7.839-18.286-18.286-18.286h-365.714c-10.447 0-18.286 7.839-18.286 18.286v365.714c0 10.447 7.839 18.286 18.286 18.286zM365.714 585.143h219.429c20.198 0 36.571-13.918 36.571-31.086v-10.971c0-17.168-16.374-31.086-36.571-31.086h-219.429c-20.198 0-36.571 13.918-36.571 31.086v10.971c0 17.168 16.374 31.086 36.571 31.086z" />
<glyph unicode="&#xe681;" glyph-name="plus" data-tags="plus" d="M475.429 877.714c-20.261 0-36.571-16.311-36.571-36.571v-256h-256c-20.261 0-36.571-16.311-36.571-36.571v-73.143c0-20.261 16.311-36.571 36.571-36.571h256v-256c0-20.261 16.311-36.571 36.571-36.571h73.143c20.261 0 36.571 16.311 36.571 36.571v256h256c20.261 0 36.571 16.311 36.571 36.571v73.143c0 20.261-16.311 36.571-36.571 36.571h-256v256c0 20.261-16.311 36.571-36.571 36.571h-73.143z" />
<glyph unicode="&#xe682;" glyph-name="circle-plus" data-tags="circle-plus" d="M512 1024c-282.77 0-512-229.23-512-512s229.23-512 512-512c282.77 0 512 229.23 512 512s-229.23 512-512 512zM475.429 841.143h73.143c20.261 0 36.571-16.311 36.571-36.571v-219.429h219.429c20.261 0 36.571-16.311 36.571-36.571v-73.143c0-20.261-16.311-36.571-36.571-36.571h-219.429v-219.429c0-20.261-16.311-36.571-36.571-36.571h-73.143c-20.261 0-36.571 16.311-36.571 36.571v219.429h-219.429c-20.261 0-36.571 16.311-36.571 36.571v73.143c0 20.261 16.311 36.571 36.571 36.571h219.429v219.429c0 20.261 16.311 36.571 36.571 36.571z" />
<glyph unicode="&#xe683;" glyph-name="circle-b-plus" data-tags="circle-b-plus" d="M512 1024c-282.77 0-512-229.23-512-512s229.23-512 512-512c282.77 0 512 229.23 512 512s-229.23 512-512 512zM512 914.286c222.176 0 402.286-180.109 402.286-402.286s-180.109-402.286-402.286-402.286c-222.176 0-402.286 180.109-402.286 402.286s180.109 402.286 402.286 402.286zM256 585.143h512c20.198 0 36.571-16.374 36.571-36.571v-73.143c0-20.198-16.374-36.571-36.571-36.571h-512c-20.198 0-36.571 16.374-36.571 36.571v73.143c0 20.198 16.374 36.571 36.571 36.571zM475.429 804.571h73.143c20.198 0 36.571-16.374 36.571-36.571v-512c0-20.198-16.374-36.571-36.571-36.571h-73.143c-20.198 0-36.571 16.374-36.571 36.571v512c0 20.198 16.374 36.571 36.571 36.571z" />
<glyph unicode="&#xe684;" glyph-name="plusthick" data-tags="plusthick" d="M438.857 950.857c-40.521 0-73.143-32.622-73.143-73.143v-219.429h-219.429c-40.521 0-73.143-32.622-73.143-73.143v-146.286c0-40.521 32.622-73.143 73.143-73.143h219.429v-219.429c0-40.521 32.622-73.143 73.143-73.143h146.286c40.521 0 73.143 32.622 73.143 73.143v219.429h219.429c40.521 0 73.143 32.622 73.143 73.143v146.286c0 40.521-32.622 73.143-73.143 73.143h-219.429v219.429c0 40.521-32.622 73.143-73.143 73.143h-146.286z" />
<glyph unicode="&#xe685;" glyph-name="squaresmall-plus" data-tags="squaresmall-plus" d="M292.571 786.286c-30.075 0-54.857-24.783-54.857-54.857v-365.714c0-30.075 24.783-54.857 54.857-54.857h365.714c30.075 0 54.857 24.783 54.857 54.857v365.714c0 30.075-24.783 54.857-54.857 54.857h-365.714zM474.214 694.857h2.429c19.606 0 35.357-13.85 35.357-31.071v-78.643h74.357c19.606 0 35.357-13.85 35.357-31.071v-11c0-17.221-15.752-31.071-35.357-31.071h-74.357v-78.643c0-17.221-15.752-31.071-35.357-31.071h-2.429c-19.606 0-35.357 13.85-35.357 31.071v78.643h-74.357c-19.605 0-35.357 13.85-35.357 31.071v11c0 17.221 15.752 31.071 35.357 31.071h74.357v78.643c0 17.221 15.752 31.071 35.357 31.071z" />
<glyph unicode="&#xe686;" glyph-name="circlesmall-plus" data-tags="circlesmall-plus" d="M292.571 786.286c-30.075 0-54.857-24.783-54.857-54.857v-365.714c0-30.075 24.783-54.857 54.857-54.857h365.714c30.075 0 54.857 24.783 54.857 54.857v365.714c0 30.075-24.783 54.857-54.857 54.857h-365.714zM292.571 749.714h365.714c10.447 0 18.286-7.839 18.286-18.286v-365.714c0-10.447-7.839-18.286-18.286-18.286h-365.714c-10.447 0-18.286 7.839-18.286 18.286v365.714c0 10.447 7.839 18.286 18.286 18.286zM365.714 585.143h219.429c20.198 0 36.571-13.918 36.571-31.086v-10.971c0-17.168-16.374-31.086-36.571-31.086h-219.429c-20.198 0-36.571 13.918-36.571 31.086v10.971c0 17.168 16.374 31.086 36.571 31.086zM475.429 694.857c20.198 0 36.571-13.918 36.571-31.086v-230.4c0-17.168-16.374-31.086-36.571-31.086s-36.571 13.918-36.571 31.086v230.4c0 17.168 16.374 31.086 36.571 31.086z" />
<glyph unicode="&#xe687;" glyph-name="pencil" data-tags="pencil" d="M658.286 914.286l-73.143-73.143 256-256 73.143 73.143c48.943 51.287 48.157 100.39 0 146.286l-109.714 109.714c-46.636 46.636-97.775 48.511-146.286 0zM548.571 804.571l-475.429-475.429v-256l256 0.073 475.429 475.355zM566.857 713.143l36.571-36.571-329.143-329.143-36.571 36.571zM201.143 347.429c55.795-55.79 93.591-94.29 144.571-147.071l1.714 0.786-54.857-54.857h-73.143v73.143h-73.143v73.143z" />
<glyph unicode="&#xe688;" glyph-name="copy" data-tags="copy" d="M256 950.857c-20.261 0-36.571-16.311-36.571-36.571v-694.857h621.714c20.261 0 36.571 16.311 36.571 36.571v329.143h-292.571c-36.571 0-73.143 0-73.143 73.143v292.571zM585.143 950.857v-292.571h292.571zM109.714 804.571c-20.261 0-36.571-16.311-36.571-36.571v-658.286c0-20.261 16.311-36.571 36.571-36.571h585.143c20.261 0 36.571 16.311 36.571 36.571v36.571h-585.143v658.286h-36.571z" />
<glyph unicode="&#xe689;" glyph-name="scissors" data-tags="scissors" d="M974.75 309.003c-71.135 109.623-193.145 157.861-272.54 107.754-6.861-4.326-13.159-9.257-18.927-14.711l-84.754 130.712 195.688 302.931c16.009 29.169 21.931 63.909 14.148 98.851-7.441 33.393-26.146 61.468-51.303 81.245l-13.090 8.214-231.972-357.784-231.972 357.784-13.090-8.214c-25.156-19.76-43.879-47.835-51.303-81.245-7.782-34.942-1.86-69.682 14.148-98.851l195.688-302.931-84.754-130.712c-5.769 5.453-12.066 10.385-18.927 14.711-79.395 50.107-201.423 1.868-272.54-107.754s-64.427-239.090 14.968-289.197c79.395-50.107 201.423-1.868 272.54 107.754l175.242 271.271 175.242-271.271c71.135-109.623 193.145-157.861 272.54-107.754s86.085 179.591 14.968 289.197zM250.502 181.994c-32.017-49.333-73.097-73.351-100.882-79.36 0 0 0 0 0 0-9.062-1.969-21.641-3.164-30.208 2.239-9.489 5.992-15.787 21.83-16.845 42.365-1.724 33.292 10.291 72.409 32.956 107.334 32.017 49.35 73.097 73.351 100.865 79.36 9.062 1.969 21.658 3.164 30.225-2.239 9.489-5.992 15.787-21.83 16.845-42.365 1.724-33.292-10.274-72.425-32.939-107.334zM512 485.413c-18.859 0-34.134 15.064-34.134 33.663s15.275 33.663 34.134 33.663c18.859 0 34.134-15.064 34.134-33.663s-15.275-33.663-34.134-33.663zM921.45 147.237c-1.058-20.551-7.356-36.373-16.845-42.365-8.568-5.403-21.163-4.208-30.208-2.239 0 0 0 0 0 0-27.768 6.009-68.865 30.027-100.882 79.36-22.665 34.925-34.663 74.041-32.939 107.334 1.058 20.534 7.356 36.373 16.845 42.365 8.568 5.403 21.163 4.191 30.225 2.239 27.768-6.009 68.848-30.027 100.865-79.36 22.665-34.925 34.663-74.041 32.956-107.334z" />
<glyph unicode="&#xe68a;" glyph-name="clipboard" data-tags="clipboard" d="M914.286 658.286c20.261 0 36.571-16.311 36.571-36.571v-585.143c0-20.261-16.311-36.571-36.571-36.571h-512c-20.261 0-36.571 16.311-36.571 36.571v329.143h258.929c18.623 0 33.643 16.311 33.643 36.571v256zM585.143 658.286v-219.429h-219.429v0.285l219.143 219.143zM365.714 1024c-36.571 0-73.143-36.571-73.143-73.143h-146.286c-40.521 0-73.143-32.622-73.143-73.143v-694.857c0-40.521 32.622-36.571 73.143-36.571h146.286v347.429l237.714 237.714h274.286v146.286c0 40.521-32.622 73.143-73.143 73.143h-146.286c0 36.571-36.571 73.143-73.143 73.143zM402.286 950.857h73.143c20.261 0 36.571-16.311 36.571-36.571v-36.571h128c10.13 0 18.286-8.155 18.286-18.286v-36.571c0-10.13-8.155-18.286-18.286-18.286h-402.286c-10.13 0-18.286 8.155-18.286 18.286v36.571c0 10.13 8.155 18.286 18.286 18.286h128v36.571c0 20.261 16.311 36.571 36.571 36.571z" />
<glyph unicode="&#xe68b;" glyph-name="disk" data-tags="disk" d="M36.571 1024c-20.261 0-36.571-16.311-36.571-36.571v-950.857c0-20.261 16.311-36.571 36.571-36.571h109.714v438.857c0 40.521 32.622 73.143 73.143 73.143h585.143c40.521 0 73.143-32.622 73.143-73.143v-438.857h109.714c20.261 0 36.571 16.311 36.571 36.571v841.143l-146.286 146.286h-841.143zM219.429 950.857h585.143v-256c0-20.261-16.311-36.571-36.571-36.571h-512c-20.261 0-36.571 16.311-36.571 36.571v256zM585.143 914.286v-219.429h146.286v219.429h-146.286zM219.429 438.857v-73.143h585.143v73.143h-585.143zM219.429 292.571v-73.143h585.143v73.143h-585.143zM219.429 146.286v-73.143h585.143v73.143h-585.143z" />
<glyph unicode="&#xe68c;" glyph-name="undo" data-tags="undo" d="M764.5 146.286c-48.013 0-42.768 7.295-37.571 30.929 0.462 2.345 1.043 4.641 1.428 7 0.205 1.198 0.461 1.872 0.643 3.143h-0.358c1.554 10.443 2.755 20.976 2.787 31.571 0 121.187-98.242 219.429-219.429 219.429h-73.143v-146.286c0-0.002 0-0.005 0-0.007 0-10.1-8.188-18.288-18.288-18.288-0.2 0-0.4 0.003-0.599 0.010-4.913 0.162-9.336 2.262-12.528 5.56l-292.372 292.368c-3.308 3.309-5.354 7.88-5.354 12.929s2.046 9.619 5.354 12.929l292.571 292.571c3.309 3.307 7.879 5.352 12.927 5.352 10.097 0 18.283-8.184 18.288-18.28v-146.286h73.143c201.978 0 365.714-163.736 365.714-365.714-0.227-67.695-18.709-133.716-53.857-190.929-2.045-3.228-4.289-6.723-5.929-9.214-1.015-1.544-2.102-3.042-3.143-4.571-9.751-13.857-14.574-14.214-37.357-14.214h-12.929z" />
<glyph unicode="&#xe68d;" glyph-name="redo" data-tags="redo" d="M259.504 146.286c48.013 0 42.768 7.295 37.571 30.929-0.462 2.345-1.043 4.641-1.428 7-0.205 1.198-0.461 1.872-0.643 3.143h0.358c-1.554 10.443-2.755 20.976-2.787 31.571 0 121.187 98.242 219.429 219.429 219.429h73.143v-146.286c0-0.002 0-0.005 0-0.007 0-10.1 8.188-18.288 18.288-18.288 0.2 0 0.4 0.003 0.599 0.010 4.913 0.162 9.336 2.262 12.528 5.56l292.372 292.368c3.308 3.309 5.354 7.88 5.354 12.929s-2.046 9.619-5.354 12.929l-292.571 292.571c-3.309 3.307-7.879 5.352-12.927 5.352-10.097 0-18.283-8.184-18.288-18.28v-146.286h-73.143c-201.978 0-365.714-163.736-365.714-365.714 0.227-67.695 18.709-133.716 53.857-190.929 2.045-3.228 4.289-6.723 5.929-9.214 1.015-1.544 2.102-3.042 3.143-4.571 9.751-13.857 14.574-14.214 37.357-14.214h12.929z" />
<glyph unicode="&#xe68e;" glyph-name="rename" data-tags="rename" d="M36.571 804.571c-20.261 0-36.571-16.311-36.571-36.571v-512c0-20.261 16.311-36.571 36.571-36.571h512v73.143h-457.143c-10.13 0-18.286 8.155-18.286 18.286v402.286c0 10.13 8.155 18.286 18.286 18.286h457.143v73.143h-512zM585.143 804.571v-73.143h73.143v73.143h-73.143zM694.857 804.571v-73.143h237.714c10.13 0 18.286-8.155 18.286-18.286v-402.286c0-10.13-8.155-18.286-18.286-18.286h-237.714v-73.143h292.571c20.261 0 36.571 16.311 36.571 36.571v512c0 20.261-16.311 36.571-36.571 36.571h-292.571zM585.143 292.571v-73.143h73.143v73.143h-73.143zM164.571 658.286h36.571c10.099 0 18.286-8.187 18.286-18.286v-256c0-10.099-8.187-18.286-18.286-18.286h-36.571c-10.099 0-18.286 8.187-18.286 18.286v256c0 10.099 8.187 18.286 18.286 18.286zM457.143 950.857c-10.13 0-18.286-8.155-18.286-18.286v-36.571c0-10.13 8.155-18.286 18.286-18.286h128v-731.429h-128c-10.13 0-18.286-8.155-18.286-18.286v-36.571c0-10.13 8.155-18.286 18.286-18.286h329.143c10.13 0 18.286 8.155 18.286 18.286v36.571c0 10.13-8.155 18.286-18.286 18.286h-128v731.429h128c10.13 0 18.286 8.155 18.286 18.286v36.571c0 10.13-8.155 18.286-18.286 18.286h-329.143z" />
<glyph unicode="&#xe68f;" glyph-name="trash" data-tags="trash" d="M509.643 1024c-103.488 0.008-206.455-11.965-287.143-37.873-40.344-12.954-75.377-29.199-102.643-51.905-26.315-21.914-45.71-52.922-46.5-88.203-0.097-0.991-0.153-2.146-0.155-3.313 0.013 0.419-0.067-0.021-0.059-0.482 0.077-1.197 0.196-2.271 0.36-3.33-0.227 0.709-0.061-0.889 0.204-2.452 0.050-0.463 0.399-2.112 0.855-3.717l108.723-728.485c1.474-9.677 6.54-17.957 13.766-23.58 68.115-60.432 191.112-80.622 314.948-80.66 123.837-0.037 246.892 20.103 316.857 82.261 6.829 6.113 11.343 14.699 12.133 24.342l109.439 730.753c0.246 1.57 0.392 3.387 0.4 5.236 0.003-0.908 0.028-0.119 0.028 0.677 0 0.036 0 0.071 0 0.107-0.005 0.286-0.066 0.563-0.073 0.854-0.004 0.144 0.004 0.286 0 0.43-0.093 1.912-0.317 3.703-0.664 5.45-1.989 32.946-21.926 62.94-48.405 84.4-27.739 22.481-63.171 38.689-103.857 51.619-81.372 25.86-184.727 37.865-288.214 37.873zM509.643 950.688c97.66-0.007 195.797-12.103 266.071-34.436 35.137-11.167 63.149-25.075 80-38.732 9.538-7.73 15.004-14.383 18.214-20.762-65.907-53.327-195.174-87.272-334.5-87.272-139.868 0-287.557 32.441-388.286 91.353 3.142 5.232 7.912 10.72 15.5 17.039 16.141 13.441 43.452 27.307 78.143 38.446 69.382 22.278 167.197 34.372 264.857 34.365z" />
<glyph unicode="&#xe690;" glyph-name="print" data-tags="print" d="M256 1024c-20.197-0.002-36.569-16.374-36.571-36.571v-182.857h-36.571c-0.006 0-0.014 0-0.021 0-11.517 0-21.791-5.323-28.496-13.644l-146.341-182.927c-4.984-6.197-8-14.161-8-22.83 0-0.010 0-0.019 0-0.029v-329.141c0.002-20.197 16.374-36.569 36.571-36.571h168.643l-57.071-171.286c-1.19-3.452-1.877-7.43-1.877-11.568 0-20.2 16.375-36.575 36.575-36.575 0.006 0 0.012 0 0.018 0h658.285c0.005 0 0.011 0 0.017 0 20.2 0 36.575 16.375 36.575 36.575 0 4.138-0.687 8.116-1.954 11.825l-56.995 171.028h168.643c20.197 0.002 36.569 16.374 36.571 36.571v329.143c0 0.008 0 0.018 0 0.027 0 8.669-3.016 16.633-8.055 22.901l-146.23 182.786c-6.759 8.391-17.033 13.714-28.55 13.714-0.007 0-0.015 0-0.022 0h-36.57v182.857c-0.002 20.197-16.374 36.569-36.571 36.571h-512zM292.571 950.857h438.857v-219.429h-438.857v219.429zM822.857 585.143h109.714c4.448 0 8.337-1.807 11.5-4.429l5-6.214c0.087-0.189 0.276-0.308 0.357-0.5 0.923-2.189 1.429-4.61 1.429-7.143v-36.571c0-10.13-8.155-18.286-18.286-18.286h-109.714c-10.13 0-18.286 8.155-18.286 18.286v36.571c0 10.13 8.155 18.286 18.286 18.286zM355.5 438.857h313l121.857-365.714h-556.714l121.857 365.714zM448 365.714c-0.154 0.002-0.335 0.004-0.517 0.004-20.2 0-36.575-16.375-36.575-36.575s16.375-36.575 36.575-36.575c0.182 0 0.363 0.001 0.545 0.004h146.258c0.154-0.002 0.335-0.004 0.517-0.004 20.2 0 36.575 16.375 36.575 36.575s-16.375 36.575-36.575 36.575c-0.182 0-0.363-0.001-0.545-0.004h-146.258zM374.857 219.429c-0.154 0.002-0.335 0.004-0.517 0.004-20.2 0-36.575-16.375-36.575-36.575s16.375-36.575 36.575-36.575c0.182 0 0.363 0.001 0.545 0.004h274.258c0.154-0.002 0.335-0.004 0.517-0.004 20.2 0 36.575 16.375 36.575 36.575s-16.375 36.575-36.575 36.575c-0.182 0-0.363-0.001-0.545-0.004h-274.258z" />
<glyph unicode="&#xe691;" glyph-name="print-b" data-tags="print-b" d="M256 1024c-20.197-0.002-36.569-16.374-36.571-36.571v-182.857h-36.571c-11.113 0.006-21.626-5.040-28.571-13.714l-146.286-182.857c-5.185-6.49-8.006-14.551-8-22.857v-329.143c0.002-20.197 16.374-36.569 36.571-36.571h168.643l-57.071-171.286c-7.898-23.69 9.742-48.154 34.714-48.143h658.286c24.972-0.011 42.612 24.452 34.714 48.143l-57.071 171.286h168.643c20.197 0.002 36.569 16.374 36.571 36.571v329.143c0.006 8.306-2.815 16.368-8 22.857l-146.286 182.857c-6.946 8.675-17.459 13.721-28.571 13.714h-36.571v182.857c-0.002 20.197-16.374 36.569-36.571 36.571zM292.571 950.857h438.857v-219.429h-438.857zM200.429 731.429h19v-36.571c0.002-20.197 16.374-36.569 36.571-36.571h512c20.197 0.002 36.569 16.374 36.571 36.571v36.571h19l127.286-159.143v-279.714l-156.071-1.214-65.214 195.643c-4.983 14.937-18.968 25.008-34.714 25h-365.714c-15.747 0.008-29.731-10.063-34.714-25l-65.214-195.643-156.071 1.214v279.714zM355.5 438.857h313l121.857-365.714h-556.714zM448 365.714c-0.154 0.002-0.335 0.004-0.517 0.004-20.2 0-36.575-16.375-36.575-36.575s16.375-36.575 36.575-36.575c0.182 0 0.363 0.001 0.545 0.004h146.258c0.154-0.002 0.335-0.004 0.517-0.004 20.2 0 36.575 16.375 36.575 36.575s-16.375 36.575-36.575 36.575c-0.182 0-0.363-0.001-0.545-0.004h-146.258zM374.857 219.429c-0.154 0.002-0.335 0.004-0.517 0.004-20.2 0-36.575-16.375-36.575-36.575s16.375-36.575 36.575-36.575c0.182 0 0.363 0.001 0.545 0.004h274.258c0.154-0.002 0.335-0.004 0.517-0.004 20.2 0 36.575 16.375 36.575 36.575s-16.375 36.575-36.575 36.575c-0.182 0-0.363-0.001-0.545-0.004h-274.258zM841.143 585.143c20.198 0 36.571-16.374 36.571-36.571s-16.374-36.571-36.571-36.571c-20.198 0-36.571 16.374-36.571 36.571s16.374 36.571 36.571 36.571z" />
<glyph unicode="&#xe692;" glyph-name="note" data-tags="note" d="M182.857 1024c-20.261 0-36.571-16.311-36.571-36.571v-109.714h-73.143c-40.521 0-73.143-32.622-73.143-73.143s32.622-73.143 73.143-73.143h73.143v-146.286h-73.143c-40.521 0-73.143-32.622-73.143-73.143s32.622-73.143 73.143-73.143h73.143v-146.286h-73.143c-40.521 0-73.143-32.622-73.143-73.143s32.622-73.143 73.143-73.143h73.143v-109.714c0-20.261 16.311-36.571 36.571-36.571h804.571c20.261 0 36.571 16.311 36.571 36.571v950.857c0 20.261-16.311 36.571-36.571 36.571h-804.571zM256 950.857h73.143c20.261 0 36.571-16.311 36.571-36.571v-804.571c0-20.261-16.311-36.571-36.571-36.571h-73.143c-20.261 0-36.571 16.311-36.571 36.571v36.571c40.521 0 73.143 32.622 73.143 73.143s-32.622 73.143-73.143 73.143v146.286c40.521 0 73.143 32.622 73.143 73.143s-32.622 73.143-73.143 73.143v146.286c40.521 0 73.143 32.622 73.143 73.143s-32.622 73.143-73.143 73.143v36.571c0 20.261 16.311 36.571 36.571 36.571z" />
<glyph unicode="&#xe693;" glyph-name="table" data-tags="table" d="M73.143 950.857c-40.521 0-73.143-32.622-73.143-73.143v-731.429c0-40.521 32.622-73.143 73.143-73.143h877.714c40.521 0 73.143 32.622 73.143 73.143v731.429c0 40.521-32.622 73.143-73.143 73.143h-877.714zM73.143 731.429h292.571v-146.286h-292.571v146.286zM438.857 731.429h219.429v-146.286h-219.429v146.286zM731.429 731.429h219.429v-146.286h-219.429v146.286zM73.143 512h292.571v-146.286h-292.571v146.286zM438.857 512h219.429v-146.286h-219.429v146.286zM731.429 512h219.429v-146.286h-219.429v146.286zM73.143 292.571h292.571v-146.286h-292.571v146.286zM438.857 292.571h219.429v-146.286h-219.429v146.286zM731.429 292.571h219.429v-146.286h-219.429v146.286z" />
<glyph unicode="&#xe694;" glyph-name="tag" data-tags="tag" d="M914.279 950.857c20.197-0.002 36.569-16.374 36.571-36.571v-329.143c-0.002-10.099-4.097-19.242-10.717-25.86l-475.426-475.426c-6.618-6.616-15.76-10.707-25.857-10.707s-19.239 4.092-25.857 10.707l-329.143 329.143c-6.616 6.618-10.707 15.76-10.707 25.857s4.092 19.239 10.707 25.857l475.428 475.428c6.618 6.619 15.761 10.713 25.86 10.714h329.14zM749.707 841.143c-50.495 0-91.429-40.934-91.429-91.429s40.934-91.429 91.429-91.429c50.495 0 91.429 40.934 91.429 91.429s-40.934 91.429-91.429 91.429z" />
<glyph unicode="&#xe695;" glyph-name="ticket" data-tags="ticket" d="M576.014 704.001l127.997-128.001-255.994-256.002-127.997 128.001zM1001.525 726.498l-73.518 73.521-32.015-32.016c-16.384-16.384-39.007-26.512-63.999-26.512-49.983 0-90.51 40.528-90.51 90.513 0 25.008 10.144 47.632 26.527 64.017l31.983 31.984-73.518 73.521c-29.967 29.968-79.006 29.968-108.973 0l-595.026-595.045c-29.967-29.968-29.967-79.009 0-108.977l73.518-73.521 31.967 31.968c16.384 16.4 39.023 26.56 64.047 26.56 49.983 0 90.51-40.528 90.51-90.513 0-25.008-10.144-47.632-26.527-64.017l-31.983-31.984 73.518-73.521c29.967-29.968 79.006-29.968 108.973 0l595.026 595.045c29.967 29.968 29.967 79.025 0 108.977zM448.018 191.998l-255.994 256.002 383.991 384.003 255.994-256.002-383.991-384.003z" />
<glyph unicode="&#xe696;" glyph-name="folder-collapsed" data-tags="folder-collapsed" d="M164.571 950.857c-10.099-0.001-18.285-8.187-18.286-18.286v-128h731.429v54.857c-0.001 10.099-8.187 18.285-18.286 18.286h-394.714l-67.786 67.786c-3.429 3.429-8.079 5.356-12.929 5.357h-219.429zM18.286 731.429c-11.799-0.006-20.503-11.019-17.786-22.5l146.286-621.714c1.953-8.244 9.313-14.067 17.786-14.071h694.857c8.472 0.004 15.832 5.827 17.786 14.071l146.286 621.714c2.718 11.481-5.987 22.494-17.786 22.5h-987.429z" />
<glyph unicode="&#xe697;" glyph-name="folder-open" data-tags="folder-open" d="M164.571 950.857c-10.099-0.001-18.285-8.187-18.286-18.286v-274.286h731.429v201.143c-0.001 10.099-8.187 18.285-18.286 18.286h-394.714l-67.786 67.786c-3.429 3.429-8.079 5.356-12.929 5.357zM18.286 585.143c-11.799-0.006-20.503-11.010-17.786-22.491l146.286-475.437c1.953-8.244 9.313-14.067 17.786-14.071h694.857c8.472 0.004 15.832 5.827 17.786 14.071l146.286 475.437c2.718 11.481-5.987 22.485-17.786 22.491z" />
<glyph unicode="&#xe698;" glyph-name="document" data-tags="document" d="M146.286 1024c-40.521 0-73.143-32.622-73.143-73.143v-877.714c0-40.521 32.622-73.143 73.143-73.143h731.429c40.521 0 73.143 32.622 73.143 73.143v585.143h-329.143c-20.261 0-36.571 16.311-36.571 36.571v329.143h-438.857zM658.286 1024v-292.571h292.571l-292.571 292.571z" />
<glyph unicode="&#xe699;" glyph-name="document-b" data-tags="document-b" d="M1024 146.286c0-40.521-32.622-73.143-73.143-73.143h-877.714c-40.521 0-73.143 32.622-73.143 73.143v731.429c0 40.521 32.622 73.143 73.143 73.143h585.143v-329.143c0-20.261 16.311-36.571 36.571-36.571h329.143v-438.857zM1024 658.286h-292.571v292.571l292.571-292.571z" />
<glyph unicode="&#xe69a;" glyph-name="audio" data-tags="audio" d="M877.714 1024l-548.571-329.143v-109.714h0.071v-369.357c-11.174 2.306-24.005 3.635-37.249 3.645-80.114-0.002-145.608-49.122-145.608-109.716s65.494-109.714 146.286-109.714c80.791 0 146.286 49.121 146.286 109.714 0 0 0 0 0 0v475.429l329 189.786v-340.357c-11.174 2.306-24.005 3.635-37.249 3.645-80.114-0.002-145.608-49.122-145.608-109.716s65.494-109.714 146.286-109.714c80.791 0 146.286 49.121 146.286 109.714v475.429h-2.286l2.357 0.643v219.429z" />
</font>
</defs>
</svg>
